Тупой жирный заяц (2007) DVDRip-AVC

Reply to topic
 
Author Message

Dream ®

Gender: Male

Longevity: 3 years 5 months

Posts: 2164



Награды: None

Post 04-Aug-2015 20:22

[Quote]

Название: Тупой жирный заяц
Страна: Россия
Жанр: Лирическая комедия
Год выпуска: 2007
Продолжительность: 1:29:19-Перевод: Не требуется
Cубтитры: нет
Режиссер: Слава Росс-В ролях: Алексей Маклаков, Владимир Долинский, Александр Баширов, Сергей Бехтерев, Соня Олейник, Никита Михалков, Ольга Матушкина, Андрей Бронников, Ёла Санько.-Описание: Детский театр в небольшом провинциальном городке. Пожилые, не всегда трезвые актёры изо дня в день играют свиней, белок, куриц, козлов...
Актёру Аркадию Сопелкину уже за 40, и последние годы он играет в театре только одну роль - Зайца. Но душа требует настоящего творчества, и Аркадий начинает вставлять цитаты из Шекспира прямо в реплики зайца. За это коллеги смотрят на него косо, а директор театра делает выговор за выговором. Единственный человек, который восхищается Аркадием - молоденькая актриса, играющая без слов - Гриб.
Но вот у театра появляется настоящий спонсор - владелец колбасных цехов! Он собирается ставить новый спектакль и неожиданно предлогает Аркадию главную роль - Вампира...--Качество видео: DVDRip-AVC
Формат видео: MKV-Видео: 704x550@1008х550, 25 fps, H264 ~ 2089 kbps avg, 0.216 bit/pixel
Аудио: 48 kHz, Dolby Digital AC3 2.0, 192 kbps-

Отчёт MediaInfo

General
Unique ID : 205366940124391469403542220517051818974 (0x9A803BE49FBB17DAB9F28FB1A15963DE)
Complete name : D:Тупой.жирный.заяц.2007.DVDRip-AVC.146.[new-team].mkv
Format : Matroska
Format version : Version 2
File size : 1.42 GiB
Duration : 1h 29mn
Overall bit rate : 2 283 Kbps
Encoded date : UTC 2015-07-29 06:56:24
Writing application : mkvmerge v7.1.0 ('Good Love') 64bit built on Jul 27 2014 13:06:55
Writing library : libebml v1.3.0 + libmatroska v1.4.1
DURATION : 01:29:19.104000000
NUMBER_OF_FRAMES : 167472
NUMBER_OF_BYTES : 128618496
_STATISTICS_WRITING_APP : mkvmerge v7.1.0 ('Good Love') 64bit built on Jul 27 2014 13:06:55
_STATISTICS_WRITING_DATE_UTC : 2015-07-29 06:56:24
_STATISTICS_TAGS : BPS DURATION NUMBER_OF_FRAMES NUMBER_OF_BYTES
Video
ID : 1
Format : AVC
Format/Info : Advanced Video Codec
Format profile : High@L4.1
Format settings, CABAC : Yes
Format settings, ReFrames : 16 frames
Codec ID : V_MPEG4/ISO/AVC
Duration : 1h 29mn
Bit rate : 2 089 Kbps
Width : 704 pixels
Height : 550 pixels
Display aspect ratio : 1.85:1
Original display aspect ratio : 1.85:1
Frame rate mode : Constant
Frame rate : 25.000 fps
Color space : YUV
Chroma subsampling : 4:2:0
Bit depth : 8 bits
Scan type : Progressive
Bits/(Pixel*Frame) : 0.216
Stream size : 1.28 GiB (90%)
Writing library : x264 core 130 r2273 b3065e6
Encoding settings : cabac=1 / ref=16 / deblock=1:-2:-1 / analyse=0x3:0x133 / me=umh / subme=10 / psy=1 / psy_rd=1.00:0.05 / mixed_ref=1 / me_range=24 / chroma_me=1 / trellis=2 / 8x8dct=1 / cqm=0 / deadzone=21,11 / fast_pskip=1 / chroma_qp_offset=-3 / threads=12 / lookahead_threads=2 / sliced_threads=0 / nr=0 / decimate=0 / interlaced=0 / bluray_compat=0 / constrained_intra=0 / bframes=8 / b_pyramid=2 / b_adapt=2 / b_bias=0 / direct=3 / weightb=1 / open_gop=0 / weightp=2 / keyint=250 / keyint_min=25 / scenecut=40 / intra_refresh=0 / rc=2pass / mbtree=0 / bitrate=2089 / ratetol=1.0 / qcomp=0.60 / qpmin=0 / qpmax=69 / qpstep=4 / cplxblur=20.0 / qblur=0.5 / ip_ratio=1.40 / pb_ratio=1.30 / aq=1:1.00
Default : Yes
Forced : No
Audio
ID : 2
Format : AC-3
Format/Info : Audio Coding 3
Mode extension : CM (complete main)
Format settings, Endianness : Big
Codec ID : A_AC3
Duration : 1h 29mn
Bit rate mode : Constant
Bit rate : 192 Kbps
Channel(s) : 2 channels
Channel positions : Front: L R
Sampling rate : 48.0 KHz
Bit depth : 16 bits
Compression mode : Lossy
Stream size : 123 MiB (8%)
Default : Yes
Forced : No

Скриншоты

-
[Profile] [PM]
Display posts:    
Reply to topic

Current time is: 30-Oct 05:34

All times are UTC ± 0



You cannot post new topics in this forum
You cannot reply to topics in this forum
You cannot edit your posts in this forum
You cannot delete your posts in this forum
You cannot vote in polls in this forum
You cannot attach files in this forum
You cannot download files in this forum