Каджаки: Правдивая история / Kajaki (2014) BDRip-AVC

Reply to topic
DL-List and Torrent activity
Size:  2.21 GB   |    Registered:  5 years 4 months   |    Completed:  0 times

Seeder not seen: Never

 
   
 
 
 
Author Message

Dream ®

Gender: Male

Longevity: 3 years 6 months

Posts: 2164



Награды: None

Post 04-Aug-2015 19:29

[Quote]

Информация о фильме
Название: Каджаки: Правдивая история
Оригинальное название: Kajaki
Год выпуска: 2014
Жанр: Триллер, военный, драма, приключения, реальные события
Режиссер: Пол Катис
В ролях: Марк Стэнли, Дэвид Эллиот, Малачи Кирби, Пол Любке, Скотт Кайл, Бенжамин О’Махони, Энди Гиббинс, Али Кук, Роберт Митчелл, Грант Килбёрн
О фильме: Фильм основан на реальном случае произошедшем с небольшим британским военным отрядом, занимавшим высоту "Афины" неподалеку от дамбы в Каджаки (Афганистан). После ночной перестрелки, несколько англичан отправились проверить не пропустил ли ближайший дорожный пост Афганской Национальной Армии к их позиции талибов, в процессе осмотра местности один из солдат подрывается на русской мине...
Выпущено: Великобритания, Иордания, Head Gear Films, MENA Film
Продолжительность: 01:48:15
Озвучивание: Любительский двухголосый [Lucky Strike]
Файл
Качество: BDRip (AVC)
Видео: MPEG-4 AVC, 2220 Кбит/с, 1024x428
Аудио: Русский (AC3, 2 ch, 256 Кбит/с), английский (АС3, 6 ch, 448 Кбит/с)
Субтитры: Английские

MI

General
Unique ID : 213231176632254348858814031732588746014 (0xA06AD4B04FB6FE38A34C8E2A6581151E)
Complete name : C:Kajaki.2014.L2.BDRip.AVC.ExKinoRay.mkv
Format : Matroska
Format version : Version 4 / Version 2
File size : 2.21 GiB
Duration : 1h 48mn
Overall bit rate : 2 925 Kbps
Movie name : Kajaki 2014 from ExKinoRay
Encoded date : UTC 2015-08-04 02:52:57
Writing application : mkvmerge v6.6.0 ('The Edge Of The In Between') built on Dec 1 2013 17:55:00
Writing library : libebml v1.3.0 + libmatroska v1.4.1
Video
ID : 1
Format : AVC
Format/Info : Advanced Video Codec
Format profile : High@L4.1
Format settings, CABAC : Yes
Format settings, ReFrames : 10 frames
Codec ID : V_MPEG4/ISO/AVC
Duration : 1h 48mn
Bit rate : 2 220 Kbps
Width : 1 024 pixels
Height : 428 pixels
Display aspect ratio : 2.40:1
Frame rate mode : Constant
Frame rate : 24.000 fps
Color space : YUV
Chroma subsampling : 4:2:0
Bit depth : 8 bits
Scan type : Progressive
Bits/(Pixel*Frame) : 0.211
Stream size : 1.64 GiB (74%)
Writing library : x264 core 133 r2334 a3ac64b
Encoding settings : cabac=1 / ref=10 / deblock=1:-3:-3 / analyse=0x3:0x113 / me=umh / subme=10 / psy=1 / psy_rd=1.00:0.15 / mixed_ref=1 / me_range=32 / chroma_me=1 / trellis=2 / 8x8dct=1 / cqm=0 / deadzone=21,11 / fast_pskip=0 / chroma_qp_offset=-3 / threads=12 / lookahead_threads=2 / sliced_threads=0 / nr=0 / decimate=0 / interlaced=0 / bluray_compat=0 / constrained_intra=0 / bframes=9 / b_pyramid=2 / b_adapt=2 / b_bias=0 / direct=3 / weightb=1 / open_gop=0 / weightp=2 / keyint=240 / keyint_min=24 / scenecut=40 / intra_refresh=0 / rc=2pass / mbtree=0 / bitrate=2220 / ratetol=1.0 / qcomp=0.65 / qpmin=0 / qpmax=51 / qpstep=4 / cplxblur=20.0 / qblur=0.5 / ip_ratio=1.40 / pb_ratio=1.30 / aq=1:1.00
Language : English
Default : Yes
Forced : No
Color primaries : BT.709
Transfer characteristics : BT.709
Matrix coefficients : BT.709
Audio #1
ID : 2
Format : AC-3
Format/Info : Audio Coding 3
Mode extension : CM (complete main)
Format settings, Endianness : Big
Codec ID : A_AC3
Duration : 1h 48mn
Bit rate mode : Constant
Bit rate : 256 Kbps
Channel(s) : 2 channels
Channel positions : Front: L R
Sampling rate : 48.0 KHz
Bit depth : 16 bits
Compression mode : Lossy
Stream size : 198 MiB (9%)
Title : DVO Lucky Strike
Language : Russian
Default : Yes
Forced : No
Audio #2
ID : 3
Format : AC-3
Format/Info : Audio Coding 3
Mode extension : CM (complete main)
Format settings, Endianness : Big
Codec ID : A_AC3
Duration : 1h 48mn
Bit rate mode : Constant
Bit rate : 448 Kbps
Channel(s) : 6 channels
Channel positions : Front: L C R, Side: L R, LFE
Sampling rate : 48.0 KHz
Bit depth : 16 bits
Compression mode : Lossy
Stream size : 347 MiB (15%)
Language : English
Default : No
Forced : No
Text
ID : 4
Format : UTF-8
Codec ID : S_TEXT/UTF8
Codec ID/Info : UTF-8 Plain Text
Language : English
Default : No
Forced : No
Menu
00:00:00.000 : en:00:00:00.000
00:10:33.208 : en:00:10:33.208
00:15:10.125 : en:00:15:10.125
00:23:13.500 : en:00:23:13.500
00:31:07.208 : en:00:31:07.208
00:41:58.458 : en:00:41:58.458
00:54:24.500 : en:00:54:24.500
01:03:25.667 : en:01:03:25.667
01:11:30.583 : en:01:11:30.583
01:18:35.708 : en:01:18:35.708
01:27:04.667 : en:01:27:04.667
01:35:37.750 : en:01:35:37.750

Скриншоты

With ratio 0.05 you can not download torrents

Похожие темы
[Profile] [PM]
Display posts:    
Reply to topic

Current time is: 05-Dec 02:34

All times are UTC ± 0



You cannot post new topics in this forum
You cannot reply to topics in this forum
You cannot edit your posts in this forum
You cannot delete your posts in this forum
You cannot vote in polls in this forum
You cannot attach files in this forum
You can download files in this forum