Грань будущего / Edge of Tomorrow (Даг Лайман / Doug Liman) [2014, США, Австралия, Фантастика, боевик, BDRip-AVC] Dub(Лицензия BD CFE)+ Sub Rus, Eng + Original Eng

Reply to topic
DL-List and Torrent activity
Size:  2.93 GB   |    Registered:  5 years 2 months   |    Completed:  0 times

Seeder not seen: 4 years 9 months

 
   
 
 
 
Author Message

IVAN@190282 ®

Gender: Male

Longevity: 5 years 2 months

Posts: 408

Location: Иваново



Награды: 3 (Подробнее)

Активный релизер (200 релизов) (Количество: 1) Активный релизер (250 релизов) (Количество: 1) Активный релизер (300 релизов) (Количество: 1)

Post 03-Aug-2015 14:35

[Quote]

Грань будущегоEdge of Tomorrow«Живи. Умри. И снова»
Страна: США, Австралия
Жанр: Фантастика, боевик
Год выпуска: 2014
Продолжительность: 01:53:27
Перевод: Профессиональный (дублированный) [Лицензия BD CFE]
Cубтитры: русские,английские
Оригинальная аудиодорожка: английский
Режиссер: Даг Лайман / Doug Liman
В ролях: Том Круз (Cage), Эмили Блант (Rita), Брендан Глисон (General Brigham), Билл Пэкстон (Master Sergeant Farell), Джонас Армстронг (Skinner), Тони Вэй (Kimmel), Кик Гарри (Griff), Франц Драмех (Ford), Драгомир Мрсич (Kuntz), Шарлотта Райли (Nance), Масаёси Ханеда (Takeda)
Описание: В недалёком будущем раса инопланетян вторгается на Землю. Никакая армия в мире не может противостоять им. Майор Уильям Кейдж умирает в бою, но случается невозможное — он оказывается во временной петле. Раз за разом он попадает в один и тот же бой, сражается и умирает… снова и снова. И каждое повторяющееся сражение приближает его к разгадке того, как победить врага.
Доп. информация:

Автор рипа: BLEID
Качество видео: BDRip-AVC |Грань будущего / Edge of Tomorrow (2014) 1080p BD-Remux| HD club
Формат видео: MKV
Видео: 1152x480 (2,35:1), 23.976 fps, 2798 Кbps, 0.211 bit/pixel
Аудио: 48 kHz, AC3 Dolby Digital, 3/2 (L,C,R,l,r) + LFE ch, 448.00 kbps |DUB
Аудио 2: 48 kHz, AC3 Dolby Digital, 3/2 (L,C,R,l,r) + LFE ch, 448.00 kbps |ENG
Формат субтитров: softsub (SRT)
Доп. информация о субтитрах: отключаемые

MediaInfo

General
Unique ID : 185495569356727155900756210434063561543 (0x8B8D25AC1DA232D4854133DD773D7347)
Complete name : E:\Мои рипы\Грань будущего BD CFE\Грань будущего BD Rip.x264.mkv
Format : Matroska
Format version : Version 4 / Version 2
File size : 2.93 GiB
Duration : 1h 53mn
Overall bit rate : 3 696 Kbps
Encoded date : UTC 2014-09-27 02:00:10
Writing application : mkvmerge v7.0.0 ('Where We Going') 64bit built on Jun 9 2014 15:16:27
Writing library : libebml v1.3.0 + libmatroska v1.4.1
DURATION : 01:51:28.354000000
NUMBER_OF_FRAMES : 19
NUMBER_OF_BYTES : 825
_STATISTICS_WRITING_APP : mkvmerge v7.0.0 ('Where We Going') 64bit built on Jun 9 2014 15:16:27
_STATISTICS_WRITING_DATE_UTC : 2014-09-27 02:00:10
_STATISTICS_TAGS : BPS DURATION NUMBER_OF_FRAMES NUMBER_OF_BYTES
Video
ID : 1
Format : AVC
Format/Info : Advanced Video Codec
Format profile : High@L4.1
Format settings, CABAC : Yes
Format settings, ReFrames : 13 frames
Codec ID : V_MPEG4/ISO/AVC
Duration : 1h 53mn
Bit rate : 2 798 Kbps
Width : 1 152 pixels
Height : 480 pixels
Display aspect ratio : 2.35:1
Original display aspect ratio : 2.35:1
Frame rate mode : Constant
Frame rate : 23.976 fps
Color space : YUV
Chroma subsampling : 4:2:0
Bit depth : 8 bits
Scan type : Progressive
Bits/(Pixel*Frame) : 0.211
Stream size : 2.16 GiB (74%)
Writing library : x264 core 142 r2479kMod dd79a61
Encoding settings : cabac=1 / ref=13 / deblock=1:-3:-3 / analyse=0x3:0x113 / me=umh / subme=11 / psy=1 / fade_compensate=0.00 / psy_rd=1.00:0.15 / mixed_ref=1 / me_range=48 / chroma_me=1 / trellis=2 / 8x8dct=1 / cqm=0 / deadzone=21,11 / fast_pskip=0 / chroma_qp_offset=0 / threads=6 / lookahead_threads=6 / sliced_threads=0 / slices=10 / nr=0 / decimate=1 / interlaced=0 / bluray_compat=0 / constrained_intra=0 / fgo=0 / bframes=16 / b_pyramid=2 / b_adapt=2 / b_bias=0 / direct=3 / weightb=1 / open_gop=1 / weightp=2 / keyint=240 / keyint_min=23 / scenecut=40 / intra_refresh=0 / rc_lookahead=40 / rc=2pass / mbtree=0 / bitrate=2798 / ratetol=1.0 / qcomp=0.60 / qpmin=0 / qpmax=69 / qpstep=4 / cplxblur=20.0 / qblur=0.5 / vbv_maxrate=20000 / vbv_bufsize=25000 / nal_hrd=none / filler=0 / ip_ratio=1.40 / pb_ratio=1.30 / aq=1:1.00
Default : Yes
Forced : No
Color primaries : BT.709
Transfer characteristics : BT.709
Matrix coefficients : BT.709
Audio #1
ID : 2
Format : AC-3
Format/Info : Audio Coding 3
Mode extension : CM (complete main)
Format settings, Endianness : Big
Codec ID : A_AC3
Duration : 1h 53mn
Bit rate mode : Constant
Bit rate : 448 Kbps
Channel(s) : 6 channels
Channel positions : Front: L C R, Side: L R, LFE
Sampling rate : 48.0 KHz
Bit depth : 16 bits
Compression mode : Lossy
Stream size : 364 MiB (12%)
Default : Yes
Forced : No
Audio #2
ID : 3
Format : AC-3
Format/Info : Audio Coding 3
Mode extension : CM (complete main)
Format settings, Endianness : Big
Codec ID : A_AC3
Duration : 1h 53mn
Bit rate mode : Constant
Bit rate : 448 Kbps
Channel(s) : 6 channels
Channel positions : Front: L C R, Side: L R, LFE
Sampling rate : 48.0 KHz
Bit depth : 16 bits
Compression mode : Lossy
Stream size : 364 MiB (12%)
Default : No
Forced : No
Text #1
ID : 4
Format : UTF-8
Codec ID : S_TEXT/UTF8
Codec ID/Info : UTF-8 Plain Text
Default : Yes
Forced : No
Text #2
ID : 5
Format : UTF-8
Codec ID : S_TEXT/UTF8
Codec ID/Info : UTF-8 Plain Text
Default : No
Forced : No
Text #3
ID : 6
Format : UTF-8
Codec ID : S_TEXT/UTF8
Codec ID/Info : UTF-8 Plain Text
Default : No
Forced : No

x264 log

x264 [info]: frame I:1035 Avg QP:14.96 size: 72431
x264 [info]: frame P:45871 Avg QP:18.54 size: 26128
x264 [info]: frame B:116359 Avg QP:19.99 size: 9510
x264 [info]: consecutive B-frames: 6.8% 7.5% 12.6% 24.5% 11.6% 23.4% 3.4% 6.1% 1.0% 1.0% 0.5% 1.3% 0.1% 0.0% 0.0% 0.0% 0.1%
x264 [info]: kb/s:2796.22
x264 [total]: encoded 163265 frames, 7.04 fps, 2796.22 kb/s, duration 6:26:44.31

Скриншот c названием фильма

Скриншоты

Пожалуйста кто скачал не сваливайте с раздачи!!!
[dis-tracker.ru].t9299.torrent
 GOLD TORRENT! DOWNLOAD TRAFFIC DOES NOT CONSIDER! 
Torrent: Registered [ 2015-08-03 14:49 ] · D065D8E671BCC7142ADC045282EEB7E7F639280D

Download .torrent

Download

15 KB

Status: checked
Completed: 0 times
Size: 2.93 GB
terms.php
Похожие темы
[Profile] [PM]
Display posts:    
Reply to topic

Current time is: 29-Oct 13:09

All times are UTC ± 0



You cannot post new topics in this forum
You cannot reply to topics in this forum
You cannot edit your posts in this forum
You cannot delete your posts in this forum
You cannot vote in polls in this forum
You cannot attach files in this forum
You can download files in this forum