Убрать из друзей / Unfriended (2015) WEB-DL 720p | iTunes

Reply to topic
DL-List and Torrent activity
Size:  2.55 GB   |    Registered:  5 years 2 months   |    Completed:  6 times

Seeder not seen: 3 years 4 months

 
   
 
 
 
Author Message

Dream ®

Gender: Male

Longevity: 3 years 5 months

Posts: 2164



Награды: None

Post 01-Aug-2015 11:51

[Quote]

Информация о фильме
Название: Убрать из друзей
Оригинальное название: Unfriended
Год выхода: 2015
Жанр:ужасы, триллер
Режиссер: Леван Габриадзе
В ролях: Шелли Хенниг, Моусес Сторм, Рени Олстэд, Уилл Пельтц, Джейкоб Высоцки, Кортни, Хэлверсон, Хезер Соссамэн, Мэттью Борер, Мики Ривер, Кэл Барнс
О фильме: Обычный вечер после школы. К скайпу влюбленных Блэр и Митча подключаются друзья — Адам, Джес, Кен и Вэл… и кто-то седьмой с ником Billy227. Все уверены, что это компьютерный глюк, пока неизвестный не начинает им писать. Билли хочет знать, кто выложил в Сеть скандальное видео с их одноклассницей Лорой Барнс, из-за которого девушка покончила с собой. И он готов выяснить это любой ценой. Друзьям кажется, что можно просто выйти из чата, но это только кажется.
Выпущено: США, Россия , Bazelevs Production, Blumhouse Productions
Продолжительность: 01:22:01
Озвучивание: Дублированное [iTunes]
Примечание: Русский локализованный видеоряд.
Файл
Формат: MKV
Качество: WEB-DL 720p
Видео: 3979 kb/s, 1280x720
Аудио: AC3, 384 kb/s (6 ch)

MI

Format : Matroska
Format version : Version 4 / Version 2
File size : 2.55 GiB
Duration : 1h 22mn
Overall bit rate : 4 452 Kbps
Encoded date : UTC 2015-07-30 18:08:24
Writing application : mkvmerge v6.9.1 ('Blue Panther') 64bit built on Apr 18 2014 18:23:38
Writing library : libebml v1.3.0 + libmatroska v1.4.1
Video
ID : 1
Format : AVC
Format/Info : Advanced Video Codec
Format profile : High@L3.1
Format settings, CABAC : No
Format settings, ReFrames : 2 frames
Codec ID : V_MPEG4/ISO/AVC
Duration : 1h 22mn
Bit rate : 3 979 Kbps
Width : 1 280 pixels
Height : 720 pixels
Display aspect ratio : 16:9
Frame rate mode : Constant
Frame rate : 24.000 fps
Color space : YUV
Chroma subsampling : 4:2:0
Bit depth : 8 bits
Scan type : Progressive
Bits/(Pixel*Frame) : 0.180
Stream size : 2.28 GiB (89%)
Language : English
Default : Yes
Forced : No
Color range : Limited
Color primaries : BT.709
Transfer characteristics : BT.709
Matrix coefficients : BT.709
Audio
ID : 2
Format : AC-3
Format/Info : Audio Coding 3
Mode extension : CM (complete main)
Format settings, Endianness : Big
Codec ID : A_AC3
Duration : 1h 22mn
Bit rate mode : Constant
Bit rate : 384 Kbps
Channel(s) : 6 channels
Channel positions : Front: L C R, Side: L R, LFE
Sampling rate : 48.0 KHz
Bit depth : 16 bits
Compression mode : Lossy
Stream size : 225 MiB (9%)
Language : Russian
Default : Yes
Forced : No
Menu
00:00:00.000 : en:Глава 1
00:06:16.000 : en:Глава 2
00:11:30.000 : en:Глава 3
00:16:52.000 : en:Глава 4
00:21:35.000 : en:Глава 5
00:27:14.000 : en:Глава 6
00:33:28.000 : en:Глава 7
00:38:41.000 : en:Глава 8
00:44:08.000 : en:Глава 9
00:51:03.000 : en:Глава 10
00:57:44.000 : en:Глава 11
01:03:20.000 : en:Глава 12
01:08:51.000 : en:Глава 13
01:13:50.000 : en:Глава 14

With ratio 0.06 you can not download torrents

Похожие темы
[Profile] [PM]
Display posts:    
Reply to topic

Current time is: 27-Oct 21:11

All times are UTC ± 0



You cannot post new topics in this forum
You cannot reply to topics in this forum
You cannot edit your posts in this forum
You cannot delete your posts in this forum
You cannot vote in polls in this forum
You cannot attach files in this forum
You can download files in this forum