Троя / Troy (Вольфганг Петерсен / Wolfgang Petersen) [2004, США, Великобритания, Мальта, Боевик, драма, мелодрама, исторический, BDRip-AVC] Dub (BD) + MVO (Киномания) + DVO (Гланц и Королева) + AVO (А.Гаврилов) + AVO С.Рябов + Sub Rus + Original Eng

Reply to topic
DL-List and Torrent activity
Size:  8.72 GB   |    Registered:  5 years 2 months   |    Completed:  0 times

Seeder not seen: 4 years 8 months

 
   
 
 
 
Author Message

IVAN@190282 ®

Gender: Male

Longevity: 5 years 2 months

Posts: 411

Location: Иваново



Награды: 3 (Подробнее)

Активный релизер (200 релизов) (Количество: 1) Активный релизер (250 релизов) (Количество: 1) Активный релизер (300 релизов) (Количество: 1)

Post 29-Jul-2015 23:18

[Quote]

ТрояTroyРежиссерская версия / Director's Сut«For Troy»
Страна: США, Великобритания, Мальта
Жанр: Боевик, драма, мелодрама, исторический
Год выпуска: 2004
Продолжительность: 03:16:03
Перевод: Профессиональный (дублированный) BD со вставками MVO на расширенные места
Перевод 2: Профессиональный (многоголосый закадровый) Киномания
Перевод 3: Профессиональный (двухголосый закадровый) Гланц и Королева
Перевод 4: Авторский (одноголосый закадровый) А.Гаврилов
Перевод 5: Авторский (одноголосый закадровый) С.Рябов
Cубтитры: русские,английские
Оригинальная аудиодорожка: английский
Режиссер: Вольфганг Петерсен / Wolfgang Petersen
В ролях: Брэд Питт, Эрик Бана, Орландо Блум, Брайан Кокс, Дайан Крюгер, Брендан Глисон, Шон Бин, Джули Кристи, Питер О’Тул, Роуз Бирн, Винсент Риган, Саффрон Берроуз, Джулиан Гловер, Гаррет Хедлунд
Описание: 1193 год до нашей эры. Наследник престола Трои Парис украл прекрасную Елену, жену царя Спарты Менелая. За честь Менелая вступается его брат — царь Агамемнон. Его армия под предводительством Ахиллеса подошла к Трое и взяла город в кровавую осаду, длившуюся долгих десять лет… Два мира будут воевать за честь и власть. Тысячи умрут за славу. И за любовь нация сгорит дотла.
Доп. информация:

Качество видео: BDRip-AVC | Троя / Troy (2004) 1080p BD-Remux| Kinozal |
Формат видео: MKV
Видео: 1190x492 (2:40:1), 23,976 fps, 3421 Кbps, 0.244 bit/pixe
Аудио: 48 kHz, AC3 Dolby Digital, 3/2 (L,C,R,l,r) + LFE ch, ~448.00 kbps avg DUB
Аудио 2: 48 kHz, AC3 Dolby Digital, 3/2 (L,C,R,l,r) + LFE ch, ~448.00 kbps avg MVO
Аудио 3: 48 kHz, AC3 Dolby Digital, 3/2 (L,C,R,l,r) + LFE ch, ~448.00 kbps avg DVO отдельно
Аудио 4: 48 kHz, AC3 Dolby Digital, 3/2 (L,C,R,l,r) + LFE ch, ~448.00 kbps avg AVO
отдельно
Аудио 5:48 kHz, AC3 Dolby Digital, 3/2 (L,C,R,l,r) + LFE ch, ~448.00 kbps avg AVO отдельно
Аудио 6:48 kHz, AC3 Dolby Digital, 3/2 (L,C,R,l,r) + LFE ch, ~448.00 kbps avg ENG
Формат субтитров: softsub (SRT)
Доп. информация о субтитрах: отключаемые

MediaInfo

General
Unique ID : 228007529821411265956228789677201832483 (0xAB88A725F439B21C850D09221DF43A23)
Complete name : E:\Мои рипы\Троя\Troy by_IVAN@190282.mkv
Format : Matroska
Format version : Version 2
File size : 6.66 GiB
Duration : 3h 16mn
Overall bit rate : 4 862 Kbps
Movie name : Troy by_IVAN@190282
Encoded date : UTC 2015-03-31 03:02:32
Writing application : mkvmerge v7.0.0 ('Where We Going') 64bit built on Jun 9 2014 15:16:27
Writing library : libebml v1.3.0 + libmatroska v1.4.1
DURATION : 03:13:05.825000000
NUMBER_OF_FRAMES : 1377
NUMBER_OF_BYTES : 44689
_STATISTICS_WRITING_APP : mkvmerge v7.0.0 ('Where We Going') 64bit built on Jun 9 2014 15:16:27
_STATISTICS_WRITING_DATE_UTC : 2015-03-31 03:02:32
_STATISTICS_TAGS : BPS DURATION NUMBER_OF_FRAMES NUMBER_OF_BYTES
Attachment : Yes
Video
ID : 1
Format : AVC
Format/Info : Advanced Video Codec
Format profile : High@L4.1
Format settings, CABAC : Yes
Format settings, ReFrames : 14 frames
Codec ID : V_MPEG4/ISO/AVC
Duration : 3h 16mn
Bit rate : 3 421 Kbps
Width : 1 190 pixels
Height : 492 pixels
Display aspect ratio : 2.40:1
Frame rate mode : Constant
Frame rate : 23.976 fps
Color space : YUV
Chroma subsampling : 4:2:0
Bit depth : 8 bits
Scan type : Progressive
Bits/(Pixel*Frame) : 0.244
Stream size : 4.68 GiB (70%)
Title : Troy by_IVAN@190282
Writing library : x264 core 146 r2538kMod 121396c
Encoding settings : cabac=1 / ref=14 / deblock=1:-3:-3 / analyse=0x3:0x113 / me=umh / subme=11 / psy=1 / fade_compensate=0.00 / psy_rd=1.00:0.15 / mixed_ref=1 / me_range=48 / chroma_me=1 / trellis=2 / 8x8dct=1 / cqm=0 / deadzone=21,11 / fast_pskip=0 / chroma_qp_offset=0 / threads=6 / lookahead_threads=6 / sliced_threads=0 / slices=10 / nr=0 / decimate=1 / interlaced=0 / bluray_compat=0 / constrained_intra=0 / fgo=0 / bframes=16 / b_pyramid=2 / b_adapt=2 / b_bias=0 / direct=3 / weightb=1 / open_gop=1 / weightp=2 / keyint=240 / keyint_min=23 / scenecut=40 / intra_refresh=0 / rc_lookahead=40 / rc=crf / mbtree=0 / crf=17.5000 / qcomp=0.60 / qpmin=0 / qpmax=69 / qpstep=4 / vbv_maxrate=50000 / vbv_bufsize=62500 / crf_max=0.0 / nal_hrd=none / filler=0 / ip_ratio=1.40 / pb_ratio=1.30 / aq=1:1.00
Default : Yes
Forced : No
Color primaries : BT.709
Transfer characteristics : BT.709
Matrix coefficients : BT.709
Audio #1
ID : 2
Format : AC-3
Format/Info : Audio Coding 3
Mode extension : CM (complete main)
Format settings, Endianness : Big
Codec ID : A_AC3
Duration : 3h 16mn
Bit rate mode : Constant
Bit rate : 448 Kbps
Channel(s) : 6 channels
Channel positions : Front: L C R, Side: L R, LFE
Sampling rate : 48.0 KHz
Bit depth : 16 bits
Compression mode : Lossy
Stream size : 628 MiB (9%)
Title : Dub
Language : Russian
Default : Yes
Forced : No
Audio #2
ID : 3
Format : AC-3
Format/Info : Audio Coding 3
Mode extension : CM (complete main)
Format settings, Endianness : Big
Codec ID : A_AC3
Duration : 3h 16mn
Bit rate mode : Constant
Bit rate : 448 Kbps
Channel(s) : 6 channels
Channel positions : Front: L C R, Side: L R, LFE
Sampling rate : 48.0 KHz
Bit depth : 16 bits
Compression mode : Lossy
Stream size : 628 MiB (9%)
Title : Mvo.Киномания
Language : Russian
Default : No
Forced : No
Audio #3
ID : 4
Format : AC-3
Format/Info : Audio Coding 3
Mode extension : CM (complete main)
Format settings, Endianness : Big
Codec ID : A_AC3
Duration : 3h 16mn
Bit rate mode : Constant
Bit rate : 448 Kbps
Channel(s) : 6 channels
Channel positions : Front: L C R, Side: L R, LFE
Sampling rate : 48.0 KHz
Bit depth : 16 bits
Compression mode : Lossy
Stream size : 628 MiB (9%)
Title : Eng
Language : English
Default : No
Forced : No
Text #1
ID : 5
Format : UTF-8
Codec ID : S_TEXT/UTF8
Codec ID/Info : UTF-8 Plain Text
Title : Rus
Language : Russian
Default : No
Forced : No
Text #2
ID : 6
Format : UTF-8
Codec ID : S_TEXT/UTF8
Codec ID/Info : UTF-8 Plain Text
Title : Eng
Language : English
Default : No
Forced : No
Menu
00:00:00.000 : en:Chapter 1
00:07:33.411 : en:Chapter 2
00:12:00.302 : en:Chapter 3
00:12:59.445 : en:Chapter 4
00:15:55.370 : en:Chapter 5
00:20:56.922 : en:Chapter 6
00:23:15.434 : en:Chapter 7
00:25:52.675 : en:Chapter 8
00:29:59.255 : en:Chapter 9
00:38:14.041 : en:Chapter 10
00:46:43.842 : en:Chapter 11
00:49:46.315 : en:Chapter 12
00:53:19.528 : en:Chapter 13
00:55:10.222 : en:Chapter 14
00:58:07.858 : en:Chapter 15
01:08:42.326 : en:Chapter 16
01:12:22.337 : en:Chapter 17
01:15:45.707 : en:Chapter 18
01:19:10.162 : en:Chapter 19
01:22:46.836 : en:Chapter 20
01:25:09.686 : en:Chapter 21
01:28:07.738 : en:Chapter 22
01:31:15.552 : en:Chapter 23
01:36:02.756 : en:Chapter 24
01:37:35.890 : en:Chapter 25
01:40:35.404 : en:Chapter 26
01:45:16.518 : en:Chapter 27
01:48:44.475 : en:Chapter 28
01:50:31.750 : en:Chapter 29
01:52:36.541 : en:Chapter 30
01:53:08.448 : en:Chapter 31
01:59:16.356 : en:Chapter 32
02:07:11.832 : en:Chapter 33
02:07:39.109 : en:Chapter 34
02:09:22.671 : en:Chapter 35
02:12:48.585 : en:Chapter 36
02:22:00.843 : en:Chapter 37
02:22:43.429 : en:Chapter 38
02:23:17.922 : en:Chapter 39
02:24:56.396 : en:Chapter 40
02:26:45.085 : en:Chapter 41
02:29:18.824 : en:Chapter 42
02:37:12.828 : en:Chapter 43
02:49:25.825 : en:Chapter 44
03:06:38.876 : en:Chapter 45

x264 log

VIDEO ENCODING
x264 [info]: frame I:1777 Avg QP:15.89 size: 84183
x264 [info]: frame P:70471 Avg QP:17.59 size: 36304
x264 [info]: frame B:209777 Avg QP:19.46 size: 12870
x264 [info]: consecutive B-frames: 3.1% 5.2% 12.1% 27.8% 19.2% 24.5% 3.9% 1.9% 0.6% 0.3% 0.2% 0.1% 0.1% 0.4% 0.1% 0.1% 0.4%
x264 [info]: kb/s:3677.93
x264 [total]: encoded 282025 frames, 6.20 fps, 3677.93 kb/s, duration 12:38:37.67

Скриншот c названием фильма

Скриншоты

Убедительная просьба пожалуйста кто скачал не бросайте раздачу!!!
[dis-tracker.ru].t9240.torrent 
 GOLD TORRENT! DOWNLOAD TRAFFIC DOES NOT CONSIDER! 
Torrent: Registered [ 2015-07-29 23:18 ] · DBEE246434FAD174C9E37A69E517EA618DB3259B

Download .torrent

Download

22 KB

Status: checked
Completed: 0 times
Size: 8.72 GB
terms.php
Похожие темы
[Profile] [PM]
Display posts:    
Reply to topic

Current time is: 22-Oct 17:23

All times are UTC ± 0



You cannot post new topics in this forum
You cannot reply to topics in this forum
You cannot edit your posts in this forum
You cannot delete your posts in this forum
You cannot vote in polls in this forum
You cannot attach files in this forum
You can download files in this forum