Чужой против Хищника / Alien vs. Predator (Пол У. С. Андерсон / Paul W.S. Anderson) [2004, Германия, США, Великобритания, Чехия, ужасы, фантастика, боевик, триллер, BDRip-AVC] [ Unrated ] Dub + MVO (Киномания) + AVO (А.Гаврилов) + Sub Rus,Eng + Origi

Reply to topic
DL-List and Torrent activity
Size:  4.62 GB   |    Registered:  5 years 2 months   |    Completed:  2 times

Seeder not seen: 3 years 4 months

 
   
 
 
 
Author Message

IVAN@190282 ®

Gender: Male

Longevity: 5 years 2 months

Posts: 411

Location: Иваново



Награды: 3 (Подробнее)

Активный релизер (200 релизов) (Количество: 1) Активный релизер (250 релизов) (Количество: 1) Активный релизер (300 релизов) (Количество: 1)

Post 29-Jul-2015 22:54

[Quote]

Чужой против ХищникаAlien vs. PredatorПолная версия / Unrated Edition«Кто бы ни победил - человечество проиграет...»
Страна: Германия, США, Великобритания, Чехия
Жанр: ужасы, фантастика, боевик, триллер
Год выпуска: 2004
Продолжительность: 01:48:40
Перевод: Профессиональный (дублированный) Blu-ray CEE со вставками MVO
Перевод 2: Профессиональный (многоголосый закадровый) Киномания
Перевод 3: Авторский (одноголосый закадровый) А.Гаврилов
Cубтитры: русские,английские
Оригинальная аудиодорожка: английский
Режиссер: Пол У. С. Андерсон / Paul W.S. Anderson
В ролях: Санаа Лэтэн (Alexa Woods), Рауль Бова (Sebastian de Rosa), Лэнс Хенриксен (Charles Bishop Weyland), Юэн Бремнер (Graeme Miller), Колин Сэлмон (Maxwell Stafford), Томми Флэнаган (Mark Verheiden), Джозеф Рай (Joe Connors), Агат Де Ла Булае (Adele Rousseau), Карстен Норгаард (Rusten Quinn), Сэм Тротон (Thomas Parks)
Описание: Наши дни. Группа ученых отправляется в Антарктиду, чтобы отыскать колыбель цивилизации, царившей на Земле многие тысячелетия назад. Под толщей льда они находят пирамиды, в которых обнаруживают человеческие скелеты и следы жизнедеятельности чужих.
Однако они еще не знают, что уже находятся под колпаком у хозяев этого города — хищников, и их дни сочтены. Человеческая приманка поможет хищникам, наконец, завершить войну двух космических цивилизаций…
Доп. информация:
Релиз группы:
Качество видео: BDRip-AVC | Чужой против Хищника / Alien vs. Predator (2004) Blu-ray CEE|
Формат видео: MKV
Видео: 1144x488 (2:35:1), 23,976 fps, 4190 Кbps, 0.313 bit/pixe
Аудио: 48 kHz, AC3 Dolby Digital, 3/2 (L,C,R,l,r) + LFE ch, ~448.00 kbps avg | DUB
Аудио 2: 48 kHz, AC3 Dolby Digital, 3/2 (L,C,R,l,r) + LFE ch, ~448.00 kbps avg | MVO отдельно
Аудио 3: 48 kHz, AC3 Dolby Digital, 3/2 (L,C,R,l,r) + LFE ch, ~448.00 kbps avg | AVO отдельно
Аудио 4: 48 kHz, AC3 Dolby Digital, 3/2 (L,C,R,l,r) + LFE ch, ~448.00 kbps avg | ENG
Формат субтитров: softsub (SRT)
Доп. информация о субтитрах: отключаемые

MediaInfo

General
Unique ID : 240180486518637992699722031244508987476 (0xB4B114402F2B2E22AE659A24ACBD0054)
Complete name : E:\Мои рипы\Чужой против хищника\AVP Alien vs. Predator by_IVAN@190282.mkv
Format : Matroska
Format version : Version 2
File size : 3.94 GiB
Duration : 1h 48mn
Overall bit rate : 5 189 Kbps
Encoded date : UTC 2015-02-24 06:58:45
Writing application : mkvmerge v7.0.0 ('Where We Going') 64bit built on Jun 9 2014 15:16:27
Writing library : libebml v1.3.0 + libmatroska v1.4.1
DURATION : 01:31:34.804000000
NUMBER_OF_FRAMES : 658
NUMBER_OF_BYTES : 18950
_STATISTICS_WRITING_APP : mkvmerge v7.0.0 ('Where We Going') 64bit built on Jun 9 2014 15:16:27
_STATISTICS_WRITING_DATE_UTC : 2015-02-24 06:58:45
_STATISTICS_TAGS : BPS DURATION NUMBER_OF_FRAMES NUMBER_OF_BYTES
Video
ID : 1
Format : AVC
Format/Info : Advanced Video Codec
Format profile : High@L4.1
Format settings, CABAC : Yes
Format settings, ReFrames : 13 frames
Codec ID : V_MPEG4/ISO/AVC
Duration : 1h 48mn
Bit rate : 4 190 Kbps
Width : 1 144 pixels
Height : 488 pixels
Display aspect ratio : 2.35:1
Frame rate mode : Constant
Frame rate : 23.976 fps
Color space : YUV
Chroma subsampling : 4:2:0
Bit depth : 8 bits
Scan type : Progressive
Bits/(Pixel*Frame) : 0.313
Stream size : 3.18 GiB (81%)
Writing library : x264 core 144 r2525kMod 40bb568
Encoding settings : cabac=1 / ref=13 / deblock=1:-3:-3 / analyse=0x3:0x113 / me=umh / subme=11 / psy=1 / fade_compensate=0.00 / psy_rd=1.00:0.15 / mixed_ref=1 / me_range=48 / chroma_me=1 / trellis=2 / 8x8dct=1 / cqm=0 / deadzone=21,11 / fast_pskip=0 / chroma_qp_offset=0 / threads=6 / lookahead_threads=6 / sliced_threads=0 / slices=10 / nr=0 / decimate=1 / interlaced=0 / bluray_compat=0 / constrained_intra=0 / fgo=0 / bframes=16 / b_pyramid=2 / b_adapt=2 / b_bias=0 / direct=1 / weightb=1 / open_gop=1 / weightp=2 / keyint=240 / keyint_min=23 / scenecut=40 / intra_refresh=0 / rc_lookahead=40 / rc=crf / mbtree=0 / crf=18.5000 / qcomp=0.60 / qpmin=0 / qpmax=69 / qpstep=4 / vbv_maxrate=50000 / vbv_bufsize=62500 / crf_max=0.0 / nal_hrd=none / filler=0 / ip_ratio=1.40 / pb_ratio=1.30 / aq=1:1.00
Default : Yes
Forced : No
Color primaries : BT.709
Transfer characteristics : BT.709
Matrix coefficients : BT.709
Audio #1
ID : 2
Format : AC-3
Format/Info : Audio Coding 3
Mode extension : CM (complete main)
Format settings, Endianness : Big
Codec ID : A_AC3
Duration : 1h 48mn
Bit rate mode : Constant
Bit rate : 448 Kbps
Channel(s) : 6 channels
Channel positions : Front: L C R, Side: L R, LFE
Sampling rate : 48.0 KHz
Bit depth : 16 bits
Compression mode : Lossy
Stream size : 348 MiB (9%)
Title : Dub+MVO (CEE)
Default : Yes
Forced : No
Audio #2
ID : 3
Format : AC-3
Format/Info : Audio Coding 3
Mode extension : CM (complete main)
Format settings, Endianness : Big
Codec ID : A_AC3
Duration : 1h 48mn
Bit rate mode : Constant
Bit rate : 448 Kbps
Channel(s) : 6 channels
Channel positions : Front: L C R, Side: L R, LFE
Sampling rate : 48.0 KHz
Bit depth : 16 bits
Compression mode : Lossy
Stream size : 348 MiB (9%)
Title : Eng
Default : No
Forced : No
Text #1
ID : 4
Format : UTF-8
Codec ID : S_TEXT/UTF8
Codec ID/Info : UTF-8 Plain Text
Title : Rus
Default : No
Forced : No
Text #2
ID : 5
Format : UTF-8
Codec ID : S_TEXT/UTF8
Codec ID/Info : UTF-8 Plain Text
Title : Rus.forsed
Default : Yes
Forced : Yes
Text #3
ID : 6
Format : UTF-8
Codec ID : S_TEXT/UTF8
Codec ID/Info : UTF-8 Plain Text
Title : Rus.Киномания
Default : No
Forced : No
Text #4
ID : 7
Format : UTF-8
Codec ID : S_TEXT/UTF8
Codec ID/Info : UTF-8 Plain Text
Title : Eng
Default : No
Forced : No
Menu
00:00:00.000 : en:00:00:00.000
00:02:18.347 : en:00:02:18.347
00:04:06.204 : en:00:04:06.204
00:08:36.141 : en:00:08:36.141
00:12:59.654 : en:00:12:59.654
00:15:41.607 : en:00:15:41.607
00:19:06.437 : en:00:19:06.437
00:23:22.109 : en:00:23:22.109
00:26:21.705 : en:00:26:21.705
00:28:43.889 : en:00:28:43.889
00:30:39.421 : en:00:30:39.421
00:33:35.805 : en:00:33:35.805
00:35:48.897 : en:00:35:48.897
00:41:39.956 : en:00:41:39.956
00:44:34.005 : en:00:44:34.005
00:49:33.012 : en:00:49:33.012
00:53:54.815 : en:00:53:54.815
00:57:45.378 : en:00:57:45.378
01:03:10.328 : en:01:03:10.328
01:05:25.922 : en:01:05:25.922
01:08:36.153 : en:01:08:36.153
01:11:59.648 : en:01:11:59.648
01:13:36.996 : en:01:13:36.996
01:15:41.704 : en:01:15:41.704
01:18:50.517 : en:01:18:50.517
01:21:48.612 : en:01:21:48.612
01:24:44.955 : en:01:24:44.955
01:28:21.546 : en:01:28:21.546
01:29:41.292 : en:01:29:41.292
01:33:16.591 : en:01:33:16.591
01:36:01.589 : en:01:36:01.589
01:36:35.623 : en:01:36:35.623

x264 log

VIDEO ENCODING
x264 [info]: frame I:1019 Avg QP:16.03 size: 67172
x264 [info]: frame P:35689 Avg QP:17.33 size: 35896
x264 [info]: frame B:119630 Avg QP:19.28 size: 17942
x264 [info]: consecutive B-frames: 2.6% 5.3% 8.4% 18.6% 15.7% 37.0% 4.7% 2.0% 1.2% 1.3% 0.8% 1.0% 0.4% 0.5% 0.2% 0.1% 0.2%
x264 [info]: kb/s:4289.16
x264 [total]: encoded 156338 frames, 6.28 fps, 4289.16 kb/s, duration 6:54:52.11

Скриншот c названием фильма

Скриншоты

Убедительная просьба пожалуйста кто скачал не бросайте раздачу!!!
[dis-tracker.ru].t9232.torrent 
 GOLD TORRENT! DOWNLOAD TRAFFIC DOES NOT CONSIDER! 
Torrent: Registered [ 2015-07-29 22:54 ] · 1CA41D7F24FB438BF71E408197B8EA0FA231FAB1

Download .torrent

Download

12 KB

Status: checked
Completed: 2 times
Size: 4.62 GB
terms.php
Похожие темы
[Profile] [PM]
Display posts:    
Reply to topic

Current time is: 20-Oct 00:30

All times are UTC ± 0



You cannot post new topics in this forum
You cannot reply to topics in this forum
You cannot edit your posts in this forum
You cannot delete your posts in this forum
You cannot vote in polls in this forum
You cannot attach files in this forum
You can download files in this forum