Хелстром / Helstrom [S01] (2020) WEB-DL 1080p

Reply to topic
DL-List and Torrent activity
Size:  11.62 GB   |    Registered:  6 days   |    Completed:  0 times

Seeder not seen: Never

 
   
 
 
 
Author Message

Славик ®

Gender: Male

Longevity: 3 years 3 months

Posts: 465



Награды: 4 (Подробнее)

Активный релизер (10 релизов) (Количество: 1) Активный релизер (100 релизов) (Количество: 1) Активный релизер (150 релизов) (Количество: 1)

Post 17-Oct-2020 16:24

[Quote]


Информация о фильме
Название: Хелстром
Оригинальное название: Helstrom
Год выхода: 2020
Жанр: ужасы, фантастика, фэнтези, боевик, драма, приключения
Режиссер: Андерс Энгстрем, Джим О’Хенлон, Майкл Оффер
В ролях: Том Остин, Сидни Леммон, Элизабет Марвел, Роберт Уиздом, Ариана Гуерра, Джун Каррил, Ален Юи, Дэниэл Кадмор, Эрика Тремблэй, Дэвид Мюнье и др.
О фильме: Дэймон и Ана Хелстром — дети загадочного и могущественного серийного убийцы. В попытке разобраться в собственном происхождении они путешествуют по миру и уничтожают худших представителей человечества.
[imdb]http://www.imdb.com/title/tt10266874[/imdb] [kp]http://www.kinopoisk.ru/film/1262921[/kp]
Страна: США
Студия: ABC Signature Studios, Marvel Television
Продолжительность: ~00:55:00 серия
Перевод: Любительский (многоголосый, закадровый) BaibaKo
Файл
Качество: WEB-DL 1080p | Helstrom.S01.1080p.HULU.WEB-DL.DDP5.1.x264-NTG
Формат: Matroska
Видео: 1920x1080 at 23.976 fps, MPEG-4 AVC, ~2800 kbps avg
Аудио#1: Russian: 48 kHz, AC3, 3/2 (L,C,R,l,r) + LFE ch, ~384 kbps avg |Многоголосый закадровый, BaibaKo|
Аудио#2: English: 48 kHz, E-AC3, 3/2 (L,C,R,l,r) + LFE ch, ~256 kbps avg
Субтитры: English (SDH)
***Примечание: Без рекламы
***Релиз: wish666

Скриншоты

Список серий

01. Mother's Little Helpers
02. Viaticum
03. The One Who Got Away
04. Containment
05. Committed
06. Leviathan
07. Scars
08. Underneath
09. Vessels
10. Hell Storm

MediaInfo

Общее
Уникальный идентификатор : 289172034655748958534647102175588322475 (0xD98C82105EC3C55350F69442D6AB0CAB)
Полное имя : Marvels.Helstrom.S01E10.Hell.Storm.1080p.HULU.WEB-DL.DDP5.1.H.264-wish666.mkv
Формат : Matroska
Версия формата : Version 4
Размер файла : 1,48 Гбайт
Продолжительность : 54 м. 1 с.
Общий поток : 3 919 Кбит/сек
Дата кодирования : UTC 2020-10-17 11:32:51
Программа кодирования : mkvmerge v51.0.0 ('I Wish') 64-bit
Библиотека кодирования : libebml v1.4.0 + libmatroska v1.6.2
Видео
Идентификатор : 1
Формат : AVC
Формат/Информация : Advanced Video Codec
Профиль формата : High@L4
Настройки формата : CABAC / 4 Ref Frames
Параметр CABAC формата : Да
Параметр RefFrames формата : 4 кадра
Идентификатор кодека : V_MPEG4/ISO/AVC
Продолжительность : 54 м. 1 с.
Битрейт : 3 201 Кбит/сек
Ширина : 1 920 пикселей
Высота : 1 080 пикселей
Соотношение сторон : 16:9
Режим частоты кадров : Постоянный
Частота кадров : 23,976 (24000/1001) кадра/сек
Цветовое пространство : YUV
Субдискретизация насыщенности : 4:2:0
Битовая глубина : 8 бит
Тип развёртки : Прогрессивная
Бит/(Пиксели*Кадры) : 0.064
Размер потока : 1,21 Гбайт (82%)
Default : Да
Forced : Нет
Аудио #1
Идентификатор : 2
Формат : AC-3
Формат/Информация : Audio Coding 3
Коммерческое название : Dolby Digital
Идентификатор кодека : A_AC3
Продолжительность : 54 м. 1 с.
Вид битрейта : Постоянный
Битрейт : 384 Кбит/сек
Каналы : 6 каналов
Channel layout : L R C LFE Ls Rs
Частота : 48,0 КГц
Частота кадров : 31,250 кадров/сек (1536 SPF)
Метод сжатия : С потерями
Размер потока : 148 Мбайт (10%)
Язык : Russian
Service kind : Complete Main
Default : Да
Forced : Нет
Аудио #2
Идентификатор : 3
Формат : E-AC-3
Формат/Информация : Enhanced AC-3
Коммерческое название : Dolby Digital Plus
Идентификатор кодека : A_EAC3
Продолжительность : 54 м. 1 с.
Вид битрейта : Постоянный
Битрейт : 256 Кбит/сек
Каналы : 6 каналов
Channel layout : L R C LFE Ls Rs
Частота : 48,0 КГц
Частота кадров : 31,250 кадров/сек (1536 SPF)
Метод сжатия : С потерями
Размер потока : 98,9 Мбайт (7%)
Язык : English
Service kind : Complete Main
Default : Нет
Forced : Нет
Текст
Идентификатор : 4
Формат : UTF-8
Идентификатор кодека : S_TEXT/UTF8
Идентификатор кодека/Информация : UTF-8 Plain Text
Заголовок : SDH
Язык : English
Default : Нет
Forced : Нет
Меню
Default : Да / Да
Forced : Нет / Нет
00:02:19.020 : en:Chapter 01
00:08:23.004 : en:Chapter 02
00:21:38.005 : en:Chapter 03
00:34:35.001 : en:Chapter 04
00:53:03.001 : en:Credits

If your ratio falls below 0.3, you will not be able to download Torrents! More about the rating.

[dis-tracker.ru].t25965.torrent 
Torrent: Registered [ 2020-10-17 16:24 ] · 122FD46C2DB98A4B7459CB4DF5836F0BDFFE6A07

Download .torrent

Download

31 KB

Status: * not checked
Completed: 0 times
Size: 11.62 GB
terms.php
Похожие темы
[Profile] [PM]
Display posts:    
Reply to topic

Current time is: 24-Oct 09:47

All times are UTC ± 0



You cannot post new topics in this forum
You cannot reply to topics in this forum
You cannot edit your posts in this forum
You cannot delete your posts in this forum
You cannot vote in polls in this forum
You cannot attach files in this forum
You can download files in this forum