Дрожь земли 6 / Tremors: A Cold Day in Hell (2018) BDRip 1080p | RusFilm

Reply to topic
DL-List and Torrent activity
Size:  9.66 GB   |    Registered:  5 days   |    Completed:  0 times

Seeder not seen: Never

 
   
 
 
 
Author Message

Славик ®

Gender: Male

Longevity: 3 years 3 months

Posts: 453



Награды: 4 (Подробнее)

Активный релизер (10 релизов) (Количество: 1) Активный релизер (100 релизов) (Количество: 1) Активный релизер (150 релизов) (Количество: 1)

Post 16-Oct-2020 17:30

[Quote]


Информация о фильме
Название: Дрожь земли 6
Оригинальное название: Tremors: A Cold Day in Hell
Год выхода: 2018
Жанр: Ужасы, фантастика, боевик
Режиссер: Дон Майкл Пол
В ролях: Майкл Гросс, Джейми Кеннеди, Таня ван Граан, Джессика Энсти, Грег Крик, Стефани Шилдкнект, Дженна Аптон, Роб ван Вуурен, Эдриэнн Пирс, Поль дю Туа
О фильме: Берт Гаммер и его сын Трэвис Уэлкер отправляются в Канаду, чтобы расследовать серию атак гигантских червей, и оказываются среди грабоидов. Берт начинает подозревать, что военные пытаются приспособить подземных монстров для своих нужд, но тут дело принимает неожиданный оборот: один из грабоидов отравляет его. Единственное спасение — сделать антидот из свежего яда, но для этого надо подоить грабоида.-[imdb]http://www.imdb.com/title/tt6086082[/imdb]
Страна: США, ЮАР
Студия: Universal 1440 Entertainment
Продолжительность: 01:37:58
Перевод: Любительский, многоголосый ~ RusFilm
Файл
Кодек: MPEG-4 AVC
Качество: BDRip 1080p
Видео: 1920x1080, 12,1Mb/s, 23.976fps
Звук:
1] 192kb/s, 2ch, 48000kHz, AC3 [RUS] | RusFilm
2] 1509kb/s, 6ch, 48000kHz, DTS [ENG] | Английский оригинал
Субтитры: Английские
РЕКЛАМА ОТСУТСТВУЕТ

MI

Формат : Matroska
Версия формата : Version 2
Размер файла : 9,66 Гбайт
Продолжительность : 1 ч. 37 м.
Общий поток : 14,1 Мбит/сек
Дата кодирования : UTC 2018-05-23 05:24:30
Программа кодирования : mkvmerge v7.8.0 ('River Man') 32bit built on Apr 3 2015 12:11:22
Библиотека кодирования : libebml v1.3.1 + libmatroska v1.4.2
Видео
Идентификатор : 1
Формат : AVC
Формат/Информация : Advanced Video Codec
Профиль формата : High@L4.1
Настройки формата : CABAC / 4 Ref Frames
Параметр CABAC формата : Да
Параметр RefFrames формата : 4 кадра
Идентификатор кодека : V_MPEG4/ISO/AVC
Продолжительность : 1 ч. 37 м.
Битрейт : 12,1 Мбит/сек
Ширина : 1920 пикселей
Высота : 1080 пикселей
Соотношение сторон : 16:9
Режим частоты кадров : Постоянный
Частота кадров : 23,976 (24000/1001) кадра/сек
Цветовое пространство : YUV
Субдискретизация насыщенности : 4:2:0
Битовая глубина : 8 бит
Тип развёртки : Прогрессивная
Бит/(Пиксели*Кадры) : 0.244
Размер потока : 8,30 Гбайт (86%)
Default : Да
Forced : Нет
Statistics Tags Issue : mkvmerge v22.0.0 ('At The End Of The World') 64-bit 2018-04-24 18:59:49 / mkvmerge v7.8.0 ('River Man') 32bit built on Apr 3 2015 12:11:22 2018-05-23 05:24:30
FromStats_BitRate : 12406457
FromStats_Duration : 01:37:58.539000000
FromStats_FrameCount : 140944
FromStats_StreamSize : 9116480214
Аудио #1
Идентификатор : 2
Формат : AC-3
Формат/Информация : Audio Coding 3
Идентификатор кодека : A_AC3
Продолжительность : 1 ч. 37 м.
Вид битрейта : Постоянный
Битрейт : 192 Кбит/сек
Каналы : 2 канала
Расположение каналов : Front: L R
Частота : 48,0 КГц
Частота кадров : 31,250 кадров/сек (1536 SPF)
Битовая глубина : 16 бит
Метод сжатия : С потерями
Размер потока : 135 Мбайт (1%)
Язык : Russian
Default : Да
Forced : Да
Аудио #2
Идентификатор : 3
Формат : DTS
Формат/Информация : Digital Theater Systems
Идентификатор кодека : A_DTS
Продолжительность : 1 ч. 37 м.
Вид битрейта : Постоянный
Битрейт : 1509 Кбит/сек
Каналы : 6 каналов
Расположение каналов : Front: L C R, Side: L R, LFE
Частота : 48,0 КГц
Частота кадров : 93,750 кадра/сек (512 SPF)
Битовая глубина : 24 бит
Метод сжатия : С потерями
Размер потока : 1,03 Гбайт (11%)
Язык : English
Default : Нет
Forced : Нет
Statistics Tags Issue : mkvmerge v22.0.0 ('At The End Of The World') 64-bit 2018-04-24 18:59:49 / mkvmerge v7.8.0 ('River Man') 32bit built on Apr 3 2015 12:11:22 2018-05-23 05:24:30
FromStats_BitRate : 1509000
FromStats_Duration : 01:37:58.549000000
FromStats_FrameCount : 551114
FromStats_StreamSize : 1108841456
Текст
Идентификатор : 4
Формат : VobSub
Режим смешивания : zlib
Идентификатор кодека : S_VOBSUB
Идентификатор кодека/Информация : Picture based subtitle format used on DVDs
Язык : English
Default : Да
Forced : Нет

Скриншоты

If your ratio falls below 0.3, you will not be able to download Torrents! More about the rating.

[dis-tracker.ru].t25955.torrent 
Torrent: Registered [ 2020-10-16 17:30 ] · 709EF15A49B8C8C81355CE55322D806456397CC0

Download .torrent

Download

25 KB

Status: * not checked
Completed: 0 times
Size: 9.66 GB
terms.php
Похожие темы
[Profile] [PM]
Display posts:    
Reply to topic

Current time is: 22-Oct 15:38

All times are UTC ± 0



You cannot post new topics in this forum
You cannot reply to topics in this forum
You cannot edit your posts in this forum
You cannot delete your posts in this forum
You cannot vote in polls in this forum
You cannot attach files in this forum
You can download files in this forum