Дрожь земли 6 / Tremors: A Cold Day in Hell (2018) BDRip 1080p | D

Reply to topic
DL-List and Torrent activity
Size:  7.91 GB   |    Registered:  4 days   |    Completed:  0 times

Seeder not seen: Never

 
   
 
 
 
Author Message

Славик ®

Gender: Male

Longevity: 3 years 3 months

Posts: 446



Награды: 4 (Подробнее)

Активный релизер (10 релизов) (Количество: 1) Активный релизер (100 релизов) (Количество: 1) Активный релизер (150 релизов) (Количество: 1)

Post 16-Oct-2020 17:29

[Quote]

Информация о фильме
Название: Дрожь земли 6
Оригинальное название: Tremors: A Cold Day in Hell
Год выхода: 2018
Жанр: Ужасы, фантастика, боевик, триллер, комедия, приключения
Режиссер: Дон Майкл Пол
В ролях: Майкл Гросс, Джейми Кеннеди, Таня ван Граан, Джессика Энсти, Грег Крик, Стефани Шилдкнект, Дженна Аптон, Роб ван Вуурен, Эдриэнн Пирс, Поль дю Туа, Оскар Петерсен
О фильме:
Берт Гаммер и его сын Трэвис Уэлкер отправляются в Канаду, чтобы расследовать серию атак гигантских червей, и оказываются среди грабоидов. Берт начинает подозревать, что военные пытаются приспособить подземных монстров для своих нужд, но тут дело принимает неожиданный оборот: один из грабоидов отравляет его. Единственное спасение — сделать антидот из свежего яда, но для этого надо подоить грабоида.
[imdb]http://www.imdb.com/title/tt6086082[/imdb] [kp]http://www.kinopoisk.ru/film/1004968[/kp]
Страна: США, ЮАР
Студия: Universal 1440 Entertainment
Продолжительность: 01:37:58
Перевод: Дублированный | ТВ3
Файл
Кодек: x.264
Качество: BDRip 1080p
Видео: MPEG-4 AVC, 10.5 Mбит/с, 1920x1080, 23.976 кадр/с
Аудио #1: Русский (АС3, 6 ch, 384 Кбит/с, 48.0 KHz) Профессиональный (дублированный) ТВ3
Аудио #2: Английский (АС3, 6 ch, 640 Кбит/с, 48.0 KHz)
Субтитры: Русские (Forced), английские, французские, немецкие
► Без Рекламы!
Трейлер

MediaInfo

Источник: Tremors.A.Cold.Day.in.Hell.2018.BDRemux
General
Unique ID : 204274697741231262248375592568947776919 (0x99ADE02F95144117A4FF44F3A4089D97)
Complete name : Tremors.A.Cold.Day.in.Hell.2018.BDRip.1080p.mkv
Format : Matroska
Format version : Version 4
File size : 7.91 GiB
Duration : 1 h 37 min
Overall bit rate : 11.6 Mb/s
Encoded date : UTC 2020-06-22 21:40:36
Writing application : mkvmerge v7.1.0 ('Good Love') 64bit built on Jul 27 2014 13:06:55
Writing library : libebml v1.3.0 + libmatroska v1.4.1
Video
ID : 1
Format : AVC
Format/Info : Advanced Video Codec
Format profile : High@L4.1
Format settings : CABAC / 4 Ref Frames
Format settings, CABAC : Yes
Format settings, Reference fra : 4 frames
Codec ID : V_MPEG4/ISO/AVC
Duration : 1 h 37 min
Bit rate : 10.5 Mb/s
Width : 1 920 pixels
Height : 1 080 pixels
Display aspect ratio : 16:9
Frame rate mode : Constant
Frame rate : 23.976 (24000/1001) FPS
Color space : YUV
Chroma subsampling : 4:2:0
Bit depth : 8 bits
Scan type : Progressive
Bits/(Pixel*Frame) : 0.211
Stream size : 7.18 GiB (91%)
Writing library : x264 core 157 r2958 57baac4
Encoding settings : cabac=1 / ref=4 / deblock=1:-3:-3 / analyse=0x3:0x113 / me=umh / subme=11 / psy=1 / psy_rd=1.00:0.00 / mixed_ref=1 / me_range=48 / chroma_me=1 / trellis=2 / 8x8dct=1 / cqm=0 / deadzone=21,11 / fast_pskip=1 / chroma_qp_offset=-2 / threads=18 / lookahead_threads=4 / sliced_threads=0 / nr=0 / decimate=1 / interlaced=0 / bluray_compat=0 / constrained_intra=0 / bframes=10 / b_pyramid=2 / b_adapt=2 / b_bias=0 / direct=3 / weightb=1 / open_gop=0 / weightp=2 / keyint=240 / keyint_min=24 / scenecut=40 / intra_refresh=0 / rc_lookahead=60 / rc=2pass / mbtree=1 / bitrate=10500 / ratetol=1.0 / qcomp=0.60 / qpmin=0 / qpmax=69 / qpstep=4 / cplxblur=20.0 / qblur=0.5 / vbv_maxrate=50000 / vbv_bufsize=60500 / nal_hrd=none / filler=0 / ip_ratio=1.40 / aq=1:1.00
Language : English
Default : Yes
Forced : No
Audio #1
ID : 2
Format : AC-3
Format/Info : Audio Coding 3
Commercial name : Dolby Digital
Codec ID : A_AC3
Duration : 1 h 37 min
Bit rate mode : Constant
Bit rate : 384 kb/s
Channel(s) : 6 channels
Channel layout : L R C LFE Ls Rs
Sampling rate : 48.0 kHz
Frame rate : 31.250 FPS (1536 SPF)
Compression mode : Lossy
Stream size : 269 MiB (3%)
Title : DUB | ТВ3
Language : Russian
Service kind : Complete Main
Default : Yes
Forced : No
Audio #2
ID : 3
Format : AC-3
Format/Info : Audio Coding 3
Commercial name : Dolby Digital
Codec ID : A_AC3
Duration : 1 h 37 min
Bit rate mode : Constant
Bit rate : 640 kb/s
Channel(s) : 6 channels
Channel layout : L R C LFE Ls Rs
Sampling rate : 48.0 kHz
Frame rate : 31.250 FPS (1536 SPF)
Compression mode : Lossy
Stream size : 448 MiB (6%)
Language : English
Service kind : Complete Main
Default : No
Forced : No
Text #1
ID : 4
Format : UTF-8
Codec ID : S_TEXT/UTF8
Codec ID/Info : UTF-8 Plain Text
Duration : 39 min 28 s
Bit rate : 2 b/s
Count of elements : 9
Stream size : 742 Bytes (0%)
Title : Forced
Language : Russian
Default : Yes
Forced : No
Text #2
ID : 5
Format : UTF-8
Codec ID : S_TEXT/UTF8
Codec ID/Info : UTF-8 Plain Text
Duration : 1 h 32 min
Bit rate : 66 b/s
Count of elements : 1446
Stream size : 45.0 KiB (0%)
Language : English
Default : No
Forced : No
Text #3
ID : 6
Format : PGS
Muxing mode : zlib
Codec ID : S_HDMV/PGS
Codec ID/Info : Picture based subtitle format used on BDs/HD-DVDs
Duration : 1 h 32 min
Bit rate : 13.6 kb/s
Count of elements : 2894
Stream size : 8.98 MiB (0%)
Language : English
Default : No
Forced : No
Text #4
ID : 7
Format : PGS
Muxing mode : zlib
Codec ID : S_HDMV/PGS
Codec ID/Info : Picture based subtitle format used on BDs/HD-DVDs
Duration : 1 h 37 min
Bit rate : 10.2 kb/s
Count of elements : 2463
Stream size : 7.12 MiB (0%)
Language : French
Default : No
Forced : No
Text #5
ID : 8
Format : PGS
Muxing mode : zlib
Codec ID : S_HDMV/PGS
Codec ID/Info : Picture based subtitle format used on BDs/HD-DVDs
Duration : 1 h 37 min
Bit rate : 11.2 kb/s
Count of elements : 2459
Stream size : 7.76 MiB (0%)
Language : German
Default : No
Forced : No
Menu
00:00:00.000 : en:Chapter 1
00:04:18.383 : en:Chapter 2
00:10:18.242 : en:Chapter 3
00:14:55.269 : en:Chapter 4
00:19:17.906 : en:Chapter 5
00:24:28.800 : en:Chapter 6
00:31:32.473 : en:Chapter 7
00:37:49.558 : en:Chapter 8
00:40:04.193 : en:Chapter 9
00:47:55.747 : en:Chapter 10
00:51:02.017 : en:Chapter 11
00:56:11.326 : en:Chapter 12
01:02:27.493 : en:Chapter 13
01:06:31.570 : en:Chapter 14
01:11:22.194 : en:Chapter 15
01:17:28.769 : en:Chapter 16
01:22:39.704 : en:Chapter 17
01:26:15.211 : en:Chapter 18
01:28:33.975 : en:Chapter 19
01:33:30.688 : en:Chapter 20

Скриншоты





If your ratio falls below 0.3, you will not be able to download Torrents! More about the rating.

[dis-tracker.ru].t25954.torrent 
Torrent: Registered [ 2020-10-16 17:29 ] · CB5F2B2CC66ED55714414AEEF8D33524B99DB830

Download .torrent

Download

21 KB

Status: * not checked
Completed: 0 times
Size: 7.91 GB
terms.php
Похожие темы
[Profile] [PM]
Display posts:    
Reply to topic

Current time is: 21-Oct 16:59

All times are UTC ± 0



You cannot post new topics in this forum
You cannot reply to topics in this forum
You cannot edit your posts in this forum
You cannot delete your posts in this forum
You cannot vote in polls in this forum
You cannot attach files in this forum
You can download files in this forum