Хороший человек [01-09 из 09] 2020 WEBRip от GeneralFilm

Reply to topic
DL-List and Torrent activity
Size:  4.91 GB   |    Registered:  9 days   |    Completed:  0 times

Seeder not seen: Never

 
   
 
 
 
Author Message

Славик ®

Gender: Male

Longevity: 3 years 3 months

Posts: 476



Награды: 4 (Подробнее)

Активный релизер (10 релизов) (Количество: 1) Активный релизер (100 релизов) (Количество: 1) Активный релизер (150 релизов) (Количество: 1)

Post 16-Oct-2020 15:36

[Quote]

Оригинальное название: Хороший человек
Год выпуска: 2020
Жанр: Драма, триллер
Выпущено: Россия, START STUDIO
Режиссер: Константин Богомолов
В ролях: Никита Ефремов, Юлия Снигирь, Андрей Бурковский, Александра Ребенок, Ксения Собчак, Игорь Гордин, Игорь Черневич, Алексей Вертков, Дмитрий Куличков, Константин Мурзенко, Александр Семчев, Александр Марин, Дарья Жовнер, Владимир Храбров, Валерий Дегтярь, Василий Реутов, Артём Михалков, Геннадий Вырыпаев, Екатерина Дурова, Ольга Лапшина, Игорь Грабузов, Илья Дель, Кирилл Власов, Павел Ворожцов, Игорь Хрипунов, Дмитрий Лысенков, Ольга Бешуля, Ванда Конисевич
О фильме: В небольшой провинциальный город приезжает молодой следователь из Москвы Евгения Ключевская. Начальство поручило ей проверить информацию о существовании серийного убийцы. Жители встречают ее холодно: похоже, каждый прячет в шкафу по скелету. Зато напарником Жени становится местный следователь Иван Крутихин, который готов помогать в поисках маньяка.
[kp]http://www.kinopoisk.ru/film/1287347[/kp]
Качество: WEBRip
Видео: XviD build 73, 720x400 (16:9), 25.000 fps, ~ 1200 Kbps (~ 0.170 bit/pixel)
Аудио: 48.0 kHz, MP3, 2/0 ch, 192 kbps
Продолжительность: 9 x ~ 00:55:00
Перевод: Не требуется [Русский]
Cубтитры: нет

Скриншоты

MediaInfo

General
Complete name : D:RazdachiHoroshij.Chelovek.2020.WEBRip.GeneralFilme01.Horoshij.Chelovek.avi
Format : AVI
Format/Info : Audio Video Interleave
File size : 559 MiB
Duration : 55 min 26 s
Overall bit rate : 1 409 kb/s
Writing application : VirtualDubMod 1.5.10.3 | www.virtualdub-fr.org || (build 2550/release)
Writing library : VirtualDubMod build 2550/release
Video
ID : 0
Format : MPEG-4 Visual
Format profile : Advanced Simple@L5
Format settings : BVOP1 / Custom Matrix
Format settings, BVOP : 1
Format settings, QPel : No
Format settings, GMC : No warppoints
Format settings, Matrix : Custom
Codec ID : XVID
Codec ID/Hint : XviD
Duration : 55 min 26 s
Bit rate : 1 208 kb/s
Width : 720 pixels
Height : 400 pixels
Display aspect ratio : 16:9
Frame rate : 25.000 FPS
Color space : YUV
Chroma subsampling : 4:2:0
Bit depth : 8 bits
Scan type : Progressive
Compression mode : Lossy
Bits/(Pixel*Frame) : 0.168
Stream size : 479 MiB (86%)
Writing library : XviD 73
Audio
ID : 1
Format : MPEG Audio
Format version : Version 1
Format profile : Layer 3
Codec ID : 55
Codec ID/Hint : MP3
Duration : 55 min 26 s
Bit rate mode : Constant
Bit rate : 192 kb/s
Channel(s) : 2 channels
Sampling rate : 48.0 kHz
Frame rate : 41.667 FPS (1152 SPF)
Compression mode : Lossy
Stream size : 76.1 MiB (14%)
Alignment : Aligned on interleaves
Interleave, duration : 40 ms (1.00 video frame)
Interleave, preload duratio : 504 ms
Writing library : LAME3.99r
Encoding settings : -m s -V 4 -q 2 -lowpass 18.6 -b 192

If your ratio falls below 0.3, you will not be able to download Torrents! More about the rating.

[dis-tracker.ru].t25950.torrent 
Torrent: Registered [ 2020-10-16 15:36 ] · 7BEE454ABCEFF5425CF38A5567A818971BF5FF3D

Download .torrent

Download

26 KB

Status: * not checked
Completed: 0 times
Size: 4.91 GB
terms.php
Похожие темы
[Profile] [PM]
Display posts:    
Reply to topic

Current time is: 25-Oct 22:09

All times are UTC ± 0



You cannot post new topics in this forum
You cannot reply to topics in this forum
You cannot edit your posts in this forum
You cannot delete your posts in this forum
You cannot vote in polls in this forum
You cannot attach files in this forum
You can download files in this forum