Спасская [S01] (2020) WEBRip 1080p о

Reply to topic
DL-List and Torrent activity
Size:  29.96 GB   |    Registered:  12 days   |    Completed:  0 times

Seeder not seen: Never

 
   
 
 
 
Author Message

Славик ®

Gender: Male

Longevity: 3 years 3 months

Posts: 465



Награды: 4 (Подробнее)

Активный релизер (10 релизов) (Количество: 1) Активный релизер (100 релизов) (Количество: 1) Активный релизер (150 релизов) (Количество: 1)

Post 11-Oct-2020 16:20

[Quote]

Спасская
Страна: Россия
Жанр: детектив
Год выпуска: 2020
Продолжительность: ~00:50:00 серия
Перевод: Не требуется
Субтитры: нет
Оригинальная аудиодорожка: русский
Сезон: 1
Количество серий: 1 - 16 из 16
Режиссер: Владимир Шевельков
В ролях: Карина Андоленко, Илья Носков, Роман Маякин, Лариса Удовиченко, Михаил Жигалов, Владимир Шевельков, Игорь Огурцов, Ольга Чудакова, Татьяна Струженкова, Виталий Коваленко, Алика Смехова, Евгений Сидихин
Описание: Анна Спасская - сотрудница уголовного розыска Сочи, блондинка с острым умом и сильным характером. Принципиальна, не боится показаться занудой, не робеет перед начальством, умеет расколоть преступника и приструнить подчиненных. Главное – в любом запутанном деле находит неочевидные версии и замечает скрытые детали. Как профессионалу ей цены нет. Проницательность Спасская унаследовала от бабушки Инессы Аркадьевны. И в личной жизни у Анны, на первый взгляд, все прекрасно: состоятельный супруг носит кофе в постель и умоляет уйти с опасной работы.
[kp]http://www.kinopoisk.ru/film/1328238[/kp]
Сэмпл
Качество видео: WEBRip 1080p
Формат видео: MKV
Видео кодек: AVC
Аудио кодек: AAC
Видео: AVC, ~5000 Кбит/сек, 1920x1080 (16:9), 25 кадр/сек
Аудио: AAC, 192 Кбит/сек, 48 КГц, 2.0 - русский

MediaInfo

General
Unique ID : 30463546385881059294082071701420724075 (0x16EB10CC738AAAC14FE444A616034F6B)
Complete name : I:tempSpasskajaSpasskaja.S01.2020.WEB-DL.1080p.stalkerok.New-TeamSpasskaja.S01E01.Poslednij.kruiz.1.WEB-DL.1080p.stalkerok.New-Team.mkv
Format : Matroska
Format version : Version 4 / Version 2
File size : 1.87 GiB
Duration : 51 min
Overall bit rate mode : Variable
Overall bit rate : 5 149 kb/s
Encoded date : UTC 2020-10-08 18:05:16
Writing application : mkvmerge v51.0.0 ('I Wish') 64-bit
Writing library : libebml v1.4.0 + libmatroska v1.6.2
Video
ID : 1
Format : AVC
Format/Info : Advanced Video Codec
Format profile : High@L4
Format settings, CABAC : Yes
Format settings, ReFrames : 2 frames
Codec ID : V_MPEG4/ISO/AVC
Duration : 51 min
Bit rate mode : Variable
Bit rate : 4 957 kb/s
Maximum bit rate : 8 000 kb/s
Width : 1 920 pixels
Height : 1 080 pixels
Display aspect ratio : 16:9
Frame rate mode : Constant
Frame rate : 25.000 FPS
Color space : YUV
Chroma subsampling : 4:2:0
Bit depth : 8 bits
Scan type : Progressive
Bits/(Pixel*Frame) : 0.096
Stream size : 1.80 GiB (96%)
Default : Yes
Forced : No
Audio
ID : 2
Format : AAC
Format/Info : Advanced Audio Codec
Format profile : LC
Codec ID : A_AAC
Duration : 51 min
Bit rate : 192 kb/s
Channel(s) : 2 channels
Channel positions : Front: L R
Sampling rate : 48.0 kHz
Frame rate : 46.875 FPS (1024 spf)
Compression mode : Lossy
Stream size : 70.4 MiB (4%)
Default : Yes
Forced : No

Скриншоты

If your ratio falls below 0.3, you will not be able to download Torrents! More about the rating.

[dis-tracker.ru].t25941.torrent 
Torrent: Registered [ 2020-10-11 16:20 ] · 32F800688DACA80EA86FFC53B80D8FF127BE92E1

Download .torrent

Download

78 KB

Status: * not checked
Completed: 0 times
Size: 29.96 GB
terms.php
Похожие темы
[Profile] [PM]
Display posts:    
Reply to topic

Current time is: 24-Oct 14:26

All times are UTC ± 0



You cannot post new topics in this forum
You cannot reply to topics in this forum
You cannot edit your posts in this forum
You cannot delete your posts in this forum
You cannot vote in polls in this forum
You cannot attach files in this forum
You can download files in this forum