Цари (1964) DVDRip

Reply to topic
DL-List and Torrent activity
Size:  745 MB   |    Registered:  20 days   |    Completed:  0 times

Seeder not seen: Never

 
   
 
 
 
Author Message

Славик ®

Gender: Male

Longevity: 3 years 3 months

Posts: 465



Награды: 4 (Подробнее)

Активный релизер (10 релизов) (Количество: 1) Активный релизер (100 релизов) (Количество: 1) Активный релизер (150 релизов) (Количество: 1)

Post 03-Oct-2020 18:09

[Quote]

Страна: СССР
Производство: Одесская киностудия
Жанр: драма
Год выпуска: 1964
Продолжительность: 01:03:40
Перевод: Не требуется
Cубтитры: нет
Оригинальная аудиодорожка: русский
Режиссер: Михаил Терещенко
В ролях:
Семён Бардин, Георгий Сатини, А. Сугак, Юрий Васильев, Валерий Сомов, О. Лесникова, Вера Титова, Жанна Дианова, О. Ярошенко, Василий Симчич...
Об актёрах подробней
Описание:
В горном селе Закарпатья живет семья плотогона Михайлы Царя. Их всюду уважают, и глава рода очень гордится этим. Но вот сын Олекса полюбил фельдшера Надю, хотя у самого есть жена, а у Нади – ребенок. Отец и братья заставляют Олексу бросить любовницу. Но когда возникла необходимость перевезти больную дочь Нади на плоту в больницу, чтобы спасти от смерти, с их глаз будто спала пелена. Они признали право Олексы и Нади на любовь.-[imdb]http://www.imdb.com/title/tt4859766[/imdb] [kp]http://www.kinopoisk.ru/level/1/film/745381[/kp] -Источник:DVD5 R5
Качество видео: DVDRip
Формат видео: AVI
Видео: 704х528 (4:3), 25,000 fps, XviD ~ 1435 kbps avg, 0.154 bit/pixel
Аудио: 48 kHz, Dolby Digital AC3 2.0, 192 kbps

MediaInfo

Общее
Полное имя : Cari.1964.DVDRip_[New-team]_by_AVP_Studio.avi
Формат : AVI
Формат/Информация : Audio Video Interleave
Размер файла : 745 Мбайт
Продолжительность : 1 ч. 3 м.
Общий поток : 1637 Кбит/сек
Программа кодирования : VirtualDubMod 1.5.10.3 | www.virtualdub-fr.org || (build 2550/release)
Библиотека кодирования : VirtualDubMod build 2550/release
Видео
Идентификатор : 0
Формат : MPEG-4 Visual
Профиль формата : Advanced Simple@L5
Настройки формата : BVOP1 / Custom Matrix
Параметр BVOP формата : 1
Параметр QPel формата : Нет
Параметр GMC формата : Без точки перехода
Параметр матрицы формата : Выборочная
Идентификатор кодека : XVID
Идентификатор кодека/Подсказка : XviD
Продолжительность : 1 ч. 3 м.
Битрейт : 1435 Кбит/сек
Ширина : 704 пикселя
Высота : 528 пикселей
Соотношение сторон : 4:3
Частота кадров : 25,000 кадров/сек
Цветовое пространство : YUV
Субдискретизация насыщенности : 4:2:0
Битовая глубина : 8 бит
Тип развёртки : Прогрессивная
Метод сжатия : С потерями
Бит/(Пиксели*Кадры) : 0.154
Размер потока : 653 Мбайт (88%)
Библиотека кодирования : XviD 73
Аудио
Идентификатор : 1
Формат : AC-3
Формат/Информация : Audio Coding 3
Коммерческое название : Dolby Digital
Идентификатор кодека : 2000
Продолжительность : 1 ч. 3 м.
Вид битрейта : Постоянный
Битрейт : 192 Кбит/сек
Каналы : 2 канала
ChannelLayout : L R
Частота : 48,0 КГц
Частота кадров : 31,250 кадров/сек (1536 SPF)
Метод сжатия : С потерями
Размер потока : 87,4 Мбайт (12%)
Выравнивание : Разделение по промежуткам
Продолжительность промежутка : 40 мс. (1,00 видеокадр)
Время предзагрузки промежутка : 500 мс

Скриншоты

If your ratio falls below 0.3, you will not be able to download Torrents! More about the rating.

[dis-tracker.ru].t25903.torrent 
Torrent: Registered [ 2020-10-03 18:09 ] · 47C31128DDA863A70AC8588A07DAF216F534150E

Download .torrent

Download

16 KB

Status: * not checked
Completed: 0 times
Size: 745 MB
terms.php
Похожие темы
[Profile] [PM]
Display posts:    
Reply to topic

Current time is: 24-Oct 11:55

All times are UTC ± 0



You cannot post new topics in this forum
You cannot reply to topics in this forum
You cannot edit your posts in this forum
You cannot delete your posts in this forum
You cannot vote in polls in this forum
You cannot attach files in this forum
You can download files in this forum