Трон эльфов / Throne of Elves (2016) BDRip 720p | L

Reply to topic
DL-List and Torrent activity
Size:  3.15 GB   |    Registered:  3 years   |    Completed:  0 times

Seeder not seen: Never

 
   
 
 
 
Author Message

admin ®

Gender: Male

Longevity: 3 years 5 months

Posts: 1231



Награды: 3 (Подробнее)

Авторитетный релизер (Количество: 1) Меценат (Количество: 1) Помощь трекеру (Количество: 1)

Post 26-Sep-2017 05:33

[Quote]

Информация о фильме
Название : Гнездо дракона 2: Трон эльфов
Оригинальное название : Throne of Elves
Год выхода : 2016
Жанр : Мультфильм, фэнтези, приключения, семейный
Режиссер : И Гэ, Сун Юэфэн / Yi Ge, Yuefeng Song
[imdb]http://www.imdb.com/title/tt5425264[/imdb] [kp]http://www.kinopoisk.ru/film/988959[/kp]
Описание : Спустя два года после событий первого фильма юный Ламберт получает послание из Страны Эльфов о том, что состоится свадьба принцессы, на которую он также приглашен. Обрадованный возможностью вновь увидеться с молодой эльфийкой Лийей, он собирается в путь на воздушном корабле. В краю эльфов между тем не все спокойно — владычица Темных Эльфов Елена планирует нарушить свадебную церемонию, чтобы, застав врасплох придворных, захватить древний артефакт Альтеры — кристалл Черного Дракона.
Страна : США, Китай
Производство : Mili Pictures
Продолжительность : 01:38:52
Перевод: Любительский (многоголосый закадровый) озвучивали: Студийная Банда AD, Esther, Влад Дуров, BalFor, Торгиль, Demetra, Cuba77 [Studio AD]
Файл
Формат видео : MKV
Качество : BDRip (Исходник: Throne.of.Elves.2016.DUBBED.1080p.BluRay.REMUX.AVC.DTS-HD.MA.5.1-FGT)
Видео : AVC, 1280x720 (16:9), 23.976 fps, 3600 Kbps avg, 0.163 bit/pixel
Аудио 1: Русский, AC3, 48.0 kHz, 2 ch, 128 kbps (Многоголосый, закадровый)
Аудио 2: Китайский, AAC, 48.0 kHz, 2 ch, 440 kbps (Оригинал)
Аудио 3: Английский, AC3, 48.0 kHz, 6 ch, 384 kbps (Дублированный)
Субтитры (srt): Русские, Английские, Немецкие

Скриншоты



MediaInfo

General
Unique ID : 171172217127775162656540861153198659428 (0x80C691E26F04EA1BB6FDC17FFDB6D764)
Complete name : E:/Torrent_2/Throne of Elves (2016, AVC BDRip-720p, RUS CHI ENG+SUB [Rus Eng Ger]) [Stranik 2.0].mkv
Format : Matroska
Format version : Version 2
File size : 3.15 GiB
Duration : 1h 38mn
Overall bit rate : 4 560 Kbps
Encoded date : UTC 2017-09-20 14:58:01
Writing application : mkvmerge v5.5.0 ('Healer') built on Apr 6 2012 21:43:24
Writing library : libebml v1.2.3 + libmatroska v1.3.0
DURATION : 01:38:52.010000000
NUMBER_OF_FRAMES : 142226
NUMBER_OF_BYTES : 2669037649
_STATISTICS_WRITING_APP : mkvmerge v10.0.0 ('To Drown In You') 64bit
_STATISTICS_WRITING_DATE_UTC : 2017-09-20 12:24:05
_STATISTICS_TAGS : BPS DURATION NUMBER_OF_FRAMES NUMBER_OF_BYTES
Video #1
ID : 1
Format : AVC
Format/Info : Advanced Video Codec
Format profile : High@L3.1
Format settings, CABAC : Yes
Format settings, ReFrames : 4 frames
Codec ID : V_MPEG4/ISO/AVC
Duration : 1h 38mn
Nominal bit rate : 3 600 Kbps
Width : 1 280 pixels
Height : 720 pixels
Display aspect ratio : 16:9
Frame rate mode : Constant
Frame rate : 23.976 fps
Color space : YUV
Chroma subsampling : 4:2:0
Bit depth : 8 bits
Scan type : Progressive
Bits/(Pixel*Frame) : 0.163
Writing library : x264 core 148 r2744 b97ae06
Encoding settings : cabac=1 / ref=4 / deblock=1:0:0 / analyse=0x3:0x113 / me=umh / subme=9 / psy=1 / psy_rd=1.00:0.00 / mixed_ref=1 / me_range=32 / chroma_me=1 / trellis=1 / 8x8dct=1 / cqm=0 / deadzone=21,11 / fast_pskip=1 / chroma_qp_offset=-2 / threads=3 / lookahead_threads=1 / sliced_threads=0 / nr=0 / decimate=1 / interlaced=0 / bluray_compat=0 / constrained_intra=0 / bframes=8 / b_pyramid=2 / b_adapt=2 / b_bias=0 / direct=3 / weightb=1 / open_gop=0 / weightp=2 / keyint=288 / keyint_min=23 / scenecut=40 / intra_refresh=0 / rc_lookahead=40 / rc=2pass / mbtree=1 / bitrate=3600 / ratetol=1.0 / qcomp=0.60 / qpmin=0 / qpmax=69 / qpstep=4 / cplxblur=20.0 / qblur=0.5 / ip_ratio=1.40 / aq=1:1.00
Language : Chinese
Default : Yes
Forced : No
Audio #2
ID : 2
Format : AC-3
Format/Info : Audio Coding 3
Mode extension : CM (complete main)
Format settings, Endianness : Big
Codec ID : A_AC3
Duration : 1h 38mn
Bit rate mode : Constant
Bit rate : 128 Kbps
Channel(s) : 2 channels
Channel positions : Front: L R
Sampling rate : 48.0 KHz
Bit depth : 16 bits
Compression mode : Lossy
Stream size : 90.5 MiB (3%)
Title : MVO [Studio AD]
Language : Russian
Default : Yes
Forced : No
Audio #3
ID : 3
Format : AAC
Format/Info : Advanced Audio Codec
Format profile : LC
Codec ID : A_AAC
Duration : 1h 38mn
Channel(s) : 2 channels
Channel positions : Front: L R
Sampling rate : 48.0 KHz
Compression mode : Lossy
Title : Original
Language : Chinese
Default : No
Forced : No
Audio #4
ID : 4
Format : AC-3
Format/Info : Audio Coding 3
Mode extension : CM (complete main)
Format settings, Endianness : Big
Codec ID : A_AC3
Duration : 1h 38mn
Bit rate mode : Constant
Bit rate : 384 Kbps
Channel(s) : 6 channels
Channel positions : Front: L C R, Side: L R, LFE
Sampling rate : 48.0 KHz
Bit depth : 16 bits
Compression mode : Lossy
Stream size : 272 MiB (8%)
Title : DUB
Language : English
Default : No
Forced : No
Text #5
ID : 5
Format : UTF-8
Codec ID : S_TEXT/UTF8
Codec ID/Info : UTF-8 Plain Text
Language : Russian
Default : Yes
Forced : No
Text #6
ID : 6
Format : UTF-8
Codec ID : S_TEXT/UTF8
Codec ID/Info : UTF-8 Plain Text
Language : English
Default : No
Forced : No
Text #7
ID : 7
Format : UTF-8
Codec ID : S_TEXT/UTF8
Codec ID/Info : UTF-8 Plain Text
Language : German
Default : No
Forced : No

If your ratio falls below 0.3, you will not be able to download Torrents! More about the rating.

[dis-tracker.ru].t25694.torrent 
Torrent: Registered [ 2017-09-26 05:33 ] · 37040179FB0359CF3C4F042C8633F9AE9004A0A1

Download .torrent

Download

17 KB

Status: checked
Completed: 0 times
Size: 3.15 GB
terms.php
Похожие темы
[Profile] [PM]
Display posts:    
Reply to topic

Current time is: 25-Oct 21:36

All times are UTC ± 0



You cannot post new topics in this forum
You cannot reply to topics in this forum
You cannot edit your posts in this forum
You cannot delete your posts in this forum
You cannot vote in polls in this forum
You cannot attach files in this forum
You can download files in this forum