Летающий корабль призрак / Sora Tobu Yuurei Sen / The Flying Ghost Ship [Movie] [Без хардсаба] [RUS(int), JAP] [1969, фантастика, приключения, DVDRip]

Reply to topic
DL-List and Torrent activity
Size:  1.01 GB   |    Registered:  3 years   |    Completed:  0 times

Seeder not seen: Never

 
   
 
 
 
Author Message

admin ®

Gender: Male

Longevity: 3 years 4 months

Posts: 1225



Награды: 3 (Подробнее)

Авторитетный релизер (Количество: 1) Меценат (Количество: 1) Помощь трекеру (Количество: 1)

Post 25-Sep-2017 18:16

[Quote]

Летающий корабль призрак / Flying Phantom Ship/ Sora tobu y ûreisen
Страна: Япония
Год выпуска: 1969 г.
Жанр: фантастика, приключения
Тип: Movie
Продолжительность: 1:00:31
Режиссер: Хироши Икеда
Студия: Toei Animation
В главных ролях:
Toei Animation: Горо Ная, Масако Нодзава, Юкико Окада, Акира Нагоя, Акио Танака, Куоко Сатоми
Союзмультфильм: Алексей Консовский, Мария Виноградова, Ольга Громова, Владимир Ферапонтов, Владимир Кенигсон, Роза Макагонова
Реанимедиа: Андрей Новиков, Алина Тарасова, Елена Симанович, Гозий Махмудов, Александр Фильченко, Вероника Райциз
Описание: Город, в котором живёт маленький Хаято, подвергся нападению гигантского робота. Родители Хаято погибли под обломками, и единственный оставшийся друг — это его собака. Хаято хочет отомстить владельцу таинственного Корабля-призрака, ведь робот представился его посланником.
Потеряв семью, он попадает в дом господина Куросио, главного борца с Кораблём-призраком, крупнейшего магната в городе. И совершенно случайно Хаято попадает на секретный подземный завод, где узнаёт, что реальное положение вещей не соответствует словам господина Куросио.
Теперь его жизнь подвергается большой опасности, и только он один может помешать планам злодеев.
Доп. информация: Многие годы в океане бесследно пропадают корабли. Люди, чудом оставшиеся в живых, вспоминают что незадолго до катастрофы они видели таинственный Корабль-Призрак… Гигантский робот Голем разрушающий кварталы Токио, объявляет себя посланцем Корабля-Призрака…
На улицах города, у всех на глазах исчезают люди. Все считают, что это козни Корабля-Призрака… И только у отважного мальчика Хаято есть повод сомневаться в этом. Он готов отправиться в рискованное приключение, чтобы узнать тайну Корабля-Призрака и его загадочного капитана!
Качество: DVDRip
Тип релиза: Без хардсаба
Формат видео: MKV
Видео: 816x348, 8 bit, ~1 755 kbps, 23,976 FPS, AVC (MPEG4)
Аудио: ~192 kbps, 2 channels, 48 kHz, AAC Язык Русский (в составе контейнера) ; Озвучка: Дубляж (Реанимедия)
Аудио 2: ~192 kbps, 2 channels, 48 kHz, AAC Язык Русский (в составе контейнера) ; Озвучка 2: Дубляж (Союзмультфильм)
Аудио 3: ~192 kbps, 2 channels, 48 kHz, AAC Язык Японский (в составе контейнера)

Сравнение скриншотов

Раздача

Сравнение

Раздача

Сравнение

Раздача

Сравнение

Раздача

Сравнение

Подробные тех. данные

General
Unique ID : 234199233193866533387162648217757634825 (0xB03121B1970FE420A978739F94175109)
Complete name : C:\Users\Paul\Videos\Корабль призрак.mkv
Format : Matroska
Format version : Version 4 / Version 2
File size : 1.01 GiB
Duration : 1h 0mn
Overall bit rate : 2 378 Kbps
Encoded date : UTC 2015-01-23 17:07:29
Writing application : mkvmerge v7.5.0 ('Glass Culture') 64bit built on Jan 4 2015 16:48:44
Writing library : libebml v1.3.1 libmatroska v1.4.2
Attachements : BancoHeavyC.otf
DURATION : 01:00:30.656000000
NUMBER_OF_FRAMES : 113458
NUMBER_OF_BYTES : 87135744
_STATISTICS_WRITING_APP : mkvmerge v7.5.0 ('Glass Culture') 64bit built on Jan 4 2015 16:48:44
_STATISTICS_WRITING_DATE_UT : 2015-01-23 17:07:29
_STATISTICS_TAGS : BPS DURATION NUMBER_OF_FRAMES NUMBER_OF_BYTES
Video
ID : 1
Format : AVC
Format/Info : Advanced Video Codec
Format profile : High@L4.1
Format settings, CABAC : Yes
Format settings, ReFrames : 8 frames
Codec ID : V_MPEG4/ISO/AVC
Duration : 1h 0mn
Bit rate : 1 755 Kbps
Width : 816 pixels
Height : 348 pixels
Display aspect ratio : 2.35:1
Frame rate mode : Constant
Frame rate : 23.976 fps
Color space : YUV
Chroma subsampling : 4:2:0
Bit depth : 8 bits
Scan type : Progressive
Bits/(Pixel*Frame) : 0.258
Stream size : 760 MiB (74%)
Title : R2J Remasrered DVDRip
Writing library : RG Genshiken @cyril
Language : Japanese
Default : Yes
Forced : Yes
Audio #1
ID : 2
Format : AC-3
Format/Info : Audio Coding 3
Mode extension : CM (complete main)
Format settings, Endianness : Big
Codec ID : A_AC3
Duration : 1h 0mn
Bit rate mode : Constant
Bit rate : 192 Kbps
Channel(s) : 2 channels
Channel positions : Front: L R
Sampling rate : 48.0 KHz
Bit depth : 16 bits
Compression mode : Lossy
Stream size : 83.1 MiB (8%)
Title : Reanimedia
Language : Russian
Default : Yes
Forced : No
Audio #2
ID : 3
Format : AC-3
Format/Info : Audio Coding 3
Mode extension : CM (complete main)
Format settings, Endianness : Big
Codec ID : A_AC3
Duration : 1h 0mn
Bit rate mode : Constant
Bit rate : 192 Kbps
Channel(s) : 2 channels
Channel positions : Front: L R
Sampling rate : 48.0 KHz
Bit depth : 16 bits
Compression mode : Lossy
Stream size : 83.1 MiB (8%)
Title : Soyuz
Language : Russian
Default : No
Forced : No
Audio #3
ID : 4
Format : AC-3
Format/Info : Audio Coding 3
Mode extension : CM (complete main)
Format settings, Endianness : Big
Codec ID : A_AC3
Duration : 1h 0mn
Bit rate mode : Constant
Bit rate : 192 Kbps
Channel(s) : 2 channels
Channel positions : Front: L R
Sampling rate : 48.0 KHz
Bit depth : 16 bits
Compression mode : Lossy
Stream size : 83.1 MiB (8%)
Title : Japanese
Language : Japanese
Default : No
Forced : No

Скриншоты

If your ratio falls below 0.3, you will not be able to download Torrents! More about the rating.

[dis-tracker.ru].t25653.torrent 
Torrent: Registered [ 2017-09-25 18:16 ] · F569E6A91ACDE3EB950A3D090287C31A86E69304

Download .torrent

Download

11 KB

Status: checked
Completed: 0 times
Size: 1.01 GB
terms.php
Похожие темы
[Profile] [PM]
Display posts:    
Reply to topic

Current time is: 22-Oct 11:26

All times are UTC ± 0



You cannot post new topics in this forum
You cannot reply to topics in this forum
You cannot edit your posts in this forum
You cannot delete your posts in this forum
You cannot vote in polls in this forum
You cannot attach files in this forum
You can download files in this forum