Орёл и Решка. Перезагрузка [14x01-20] (2017) WEBRip 720p

Reply to topic
DL-List and Torrent activity
Size:  25.83 GB   |    Registered:  3 years 2 months   |    Completed:  0 times

Seeder not seen: Never

 
   
 
 
 
Author Message

admin ®

Gender: Male

Longevity: 3 years 4 months

Posts: 1225



Награды: 3 (Подробнее)

Авторитетный релизер (Количество: 1) Меценат (Количество: 1) Помощь трекеру (Количество: 1)

Post 02-Aug-2017 20:10

[Quote]


Информация о фильме
Название: Орел и Решка. Перезагрузка
Дата/Год выпуска: 2017
Страна: Украина
Жанр: Реалити-шоу, путешествия, познавательный
Продолжительность: ~48 мин
Язык: Русский
Описание: Новые ведущие программы Настя Ивлеева и Антон Птушкин открывают великие города заново! И первым местом их «перезагрузочного» путешествия окажется Гонконг. Здесь когда-то подкидывали монетку Андрей Бедняков и Жанна Бадоева. И также, как и пять лет назад, жребий вручил золотую карту мужчине, а девушке оставил сто долларов. Но даже скромный бюджет не испортит впечатления от невероятного мегаполиса с огромными небоскребами! Ребята впервые увидят, как проходит китайский Новый год. Без елок, очередей в магазинах и салатов, но зато с мандаринами и танцующими львами. Насладятся городским парадом, посмотрят шоу фейерверков и покатаются на старинном общественном транспорте.

Качество: WEBRip
Видео: MPEG-4 AVC, ~3595 Кбит/с, 1280x720, 30.000 fps
Аудио: 44.1 kHz, AAC, 2 ch, 128.00 kbps avg

Выпуски

01.Гонконг
02.Шри-Ланка
03.Бангкок
04.Катманду. Непал
05.Сингапур
06.Рио-де-Жанейро
07.Кито. Эквадор
08.Мехико. Мексика
09.Канкун. Мексика
10.Гавана. Куба
11.Майами. США
12.Лас-Вегас. США
13.Лос-Анджелес. США
14.Сан-Франциско. США
15.Чикаго. США
16.Амстердам. Нидерланды
17.Берлин. Германия
18.Париж. Франция
19.Прага. Чехия
20.Вена. Австрия

MediaInfo

Format : MPEG-4
Format profile : Base Media
Codec ID : isom
File size : 1.11 GiB
Duration : 42mn 44s
Overall bit rate mode : Variable
Overall bit rate : 3 718 Kbps
Writing application : Lavf57.2.100
Video
ID : 1
Format : AVC
Format/Info : Advanced Video Codec
Format profile : High@L3.1
Format settings, CABAC : Yes
Format settings, ReFrames : 4 frames
Codec ID : avc1
Codec ID/Info : Advanced Video Coding
Duration : 42mn 44s
Bit rate : 3 584 Kbps
Width : 1 280 pixels
Height : 720 pixels
Display aspect ratio : 16:9
Frame rate mode : Variable
Frame rate : 30.000 fps
Minimum frame rate : 14.925 fps
Maximum frame rate : 30.303 fps
Standard : Component
Color space : YUV
Chroma subsampling : 4:2:0
Bit depth : 8 bits
Scan type : Progressive
Bits/(Pixel*Frame) : 0.130
Stream size : 1.07 GiB (96%)
Audio
ID : 2
Format : AAC
Format/Info : Advanced Audio Codec
Format profile : HE-AAC / LC
Codec ID : 40
Duration : 42mn 44s
Bit rate mode : Variable
Bit rate : 128 Kbps
Maximum bit rate : 130 Kbps
Channel(s) : 2 channels
Channel positions : Front: L R
Sampling rate : 44.1 KHz / 22.05 KHz
Compression mode : Lossy
Stream size : 39.1 MiB (3%)

If your ratio falls below 0.3, you will not be able to download Torrents! More about the rating.

[dis-tracker.ru].t24625.torrent 
Torrent: Registered [ 2017-08-02 20:10 ] · 00564A05724532181296BA590DBE6D410E145A26

Download .torrent

Download

67 KB

Status: checked
Completed: 0 times
Size: 25.83 GB
terms.php
Похожие темы
[Profile] [PM]
Display posts:    
Reply to topic

Current time is: 22-Oct 14:47

All times are UTC ± 0



You cannot post new topics in this forum
You cannot reply to topics in this forum
You cannot edit your posts in this forum
You cannot delete your posts in this forum
You cannot vote in polls in this forum
You cannot attach files in this forum
You can download files in this forum