Чип и Дейл спешат на помощь / Chip 'n' Dale Rescue Rangers [S01-03] (1989-1990) WEBRip-AVC | D

Reply to topic
DL-List and Torrent activity
Size:  16.23 GB   |    Registered:  3 years 3 months   |    Completed:  0 times

Seeder not seen: Never

 
   
 
 
 
Author Message

admin ®

Gender: Male

Longevity: 3 years 5 months

Posts: 1226



Награды: 3 (Подробнее)

Авторитетный релизер (Количество: 1) Меценат (Количество: 1) Помощь трекеру (Количество: 1)

Post 08-Jul-2017 15:04

[Quote]


Информация о фильме
Название: Чип и Дейл спешат на помощь
Оригинальное название: Chip 'n' Dale Rescue Rangers
Год выхода: 1989-1990
Жанр: мультфильм, комедия, детектив, приключения, семейный
Режиссер: Джон Кимболл, Боб Дзамбони, Алан Заслов
В ролях: Кори Бёртон, Питер Каллен, Джим Каммингс, Тресс МакНилл, Роб Полсен, Дэнни Гэнс
О фильме:
Чип и Дейл — самые большие шалуны, которых когда-либо создавала студия Дисней. Эти милые и очаровательные бурундучки вечно попадают в неприятности.
[imdb]http://www.imdb.com/title/tt0096557[/imdb] [kp]http://www.kinopoisk.ru/film/95231[/kp]
Страна: США
Студия: Walt Disney Television Animation
Продолжительность: ~00:22:00 серия
Перевод: Дублированный
Файл
Кодек: AVC / AAC
Качество: WEBRip-AVC
Видео: AVC/H.264, 768x576 pixels, ~1234 kbps
Звук:
Аудио #1: AAC, 2 ch, 160 kbps, русский (дублированный)
Аудио #2: AAC, 2 ch, 160 kbps, английский (оригинальный)
Субтитры: Английские
Реклама: трёхсекундная заставка в начале

Скриншоты

Screens

MI

General
Complete name : Chip'n'Dale.Rescue.Rangers.S01-03S01E01.Catteries.Not.Included.mp4
Format : MPEG-4
Format profile : Base Media / Version 2
Codec ID : mp42 (isom/iso2/avc1/mp41)
File size : 255 MiB
Duration : 22 min 47 s
Overall bit rate mode : Variable
Overall bit rate : 1 564 kb/s
Movie name : S01E01.Catteries.Not.Included[NoNaMe-Club.rip.by.alien.09]
Encoded date : UTC 2017-07-04 04:16:45
Tagged date : UTC 2017-07-04 04:16:45
Writing application : HandBrake 1.0.7 2017040900
Video
ID : 1
Format : AVC
Format/Info : Advanced Video Codec
Format profile : High@L3.1
Format settings, CABAC : Yes
Format settings, ReFrames : 4 frames
Codec ID : avc1
Codec ID/Info : Advanced Video Coding
Duration : 22 min 46 s
Bit rate : 1 234 kb/s
Width : 768 pixels
Height : 576 pixels
Display aspect ratio : 4:3
Frame rate mode : Variable
Frame rate : 23.976 (24000/1001) FPS
Minimum frame rate : 23.974 FPS
Maximum frame rate : 23.981 FPS
Color space : YUV
Chroma subsampling : 4:2:0
Bit depth : 8 bits
Scan type : Progressive
Bits/(Pixel*Frame) : 0.116
Stream size : 201 MiB (79%)
Writing library : x264 core 148 r2708 86b7198
Encoding settings : cabac=1 / ref=3 / deblock=1:0:0 / analyse=0x3:0x113 / me=hex / subme=7 / psy=1 / psy_rd=1.00:0.00 / mixed_ref=1 / me_range=16 / chroma_me=1 / trellis=1 / 8x8dct=1 / cqm=0 / deadzone=21,11 / fast_pskip=1 / chroma_qp_offset=-2 / threads=12 / lookahead_threads=2 / sliced_threads=0 / nr=0 / decimate=1 / interlaced=0 / bluray_compat=0 / constrained_intra=0 / bframes=3 / b_pyramid=2 / b_adapt=1 / b_bias=0 / direct=1 / weightb=1 / open_gop=0 / weightp=2 / keyint=240 / keyint_min=24 / scenecut=40 / intra_refresh=0 / rc_lookahead=40 / rc=2pass / mbtree=1 / bitrate=1234 / ratetol=1.0 / qcomp=0.60 / qpmin=0 / qpmax=69 / qpstep=4 / cplxblur=20.0 / qblur=0.5 / vbv_maxrate=14000 / vbv_bufsize=14000 / nal_hrd=none / filler=0 / ip_ratio=1.40 / aq=1:1.00
Encoded date : UTC 2017-07-04 04:16:45
Tagged date : UTC 2017-07-04 04:16:45
Color range : Limited
Color primaries : BT.709
Transfer characteristics : BT.709
Matrix coefficients : BT.709
Audio #1
ID : 2
Format : AAC
Format/Info : Advanced Audio Codec
Format profile : LC
Codec ID : 40
Duration : 22 min 47 s
Bit rate mode : Variable
Bit rate : 160 kb/s
Channel(s) : 2 channels
Channel positions : Front: L R
Sampling rate : 48.0 kHz
Frame rate : 46.875 FPS (1024 spf)
Compression mode : Lossy
Stream size : 26.1 MiB (10%)
Title : Stereo / Stereo
Language : Russian
Default : Yes
Alternate group : 1
Encoded date : UTC 2017-07-04 04:16:45
Tagged date : UTC 2017-07-04 04:16:45
Audio #2
ID : 3
Format : AAC
Format/Info : Advanced Audio Codec
Format profile : LC
Codec ID : 40
Duration : 22 min 46 s
Bit rate mode : Variable
Bit rate : 160 kb/s
Channel(s) : 2 channels
Channel positions : Front: L R
Sampling rate : 48.0 kHz
Frame rate : 46.875 FPS (1024 spf)
Compression mode : Lossy
Stream size : 26.1 MiB (10%)
Title : Stereo / Stereo
Language : English
Default : No
Alternate group : 1
Encoded date : UTC 2017-07-04 04:16:45
Tagged date : UTC 2017-07-04 04:16:45
Text
ID : 4
Format : Timed Text
Muxing mode : sbtl
Codec ID : tx3g
Duration : 22 min 9 s
Bit rate mode : Variable
Bit rate : 52 b/s
Stream size : 8.39 KiB (0%)
Language : English
Default : Yes
Forced : No
Alternate group : 3
Encoded date : UTC 2017-07-04 04:16:45
Tagged date : UTC 2017-07-04 04:16:45

If your ratio falls below 0.3, you will not be able to download Torrents! More about the rating.

[dis-tracker.ru].t24185.torrent 
Torrent: Registered [ 2017-07-08 15:04 ] · B200A1D734855595D511B511360A4D24702DB509

Download .torrent

Download

45 KB

Status: checked
Completed: 0 times
Size: 16.23 GB
terms.php
Похожие темы
[Profile] [PM]
Display posts:    
Reply to topic

Current time is: 24-Oct 12:25

All times are UTC ± 0



You cannot post new topics in this forum
You cannot reply to topics in this forum
You cannot edit your posts in this forum
You cannot delete your posts in this forum
You cannot vote in polls in this forum
You cannot attach files in this forum
You can download files in this forum