Дежурный папа / Daddy Day Care (2003) HDTVRip

Reply to topic
DL-List and Torrent activity
Size:  1.46 GB   |    Registered:  5 years 1 month   |    Completed:  0 times

Seeder not seen: Never

 
   
 
 
 
Author Message

Dream ®

Gender: Male

Longevity: 3 years 6 months

Posts: 2164



Награды: None

Post 29-Sep-2015 16:01

[Quote]

«D-Day Is Coming» -Страна: США / Davis Entertainment, Day Care Productions, Revolution Studios
Жанр: комедия, семейный
Год выпуска: 2003
Продолжительность: 01:32:30
Перевод: Профессиональный (дублированный)
Cубтитры: нет
Оригинальная аудиодорожка: нет
Режиссер: Стив Карр / Steve Carr
В ролях: Эдди Мёрфи, Стив Зан, Джефф Гарлин, Реджина Кинг, Анжелика Хьюстон, Кевин Нилон, Джонатан Кац, Шиван Фэллон, Лиза Эдельштейн, Лейси Чаберт...
Роли дублировали: Вадим Гущин, Владимир Маслаков, Сергей Паршин, Елена Шульман, Галина Чигинская...
Описание: Чарли и Фила увольняют с работы в крупной корпорации. Теперь им самим придётся сидеть со своими сыновьями, так как оплачивать счета дорогостоящего детского центра уже не на что. Промучившись пару недель со своими отпрысками, папаши так увлекаются этим делом, что решают поставить дело на деловые рельсы и открывают новый центр дневного пребывания для детей.
Чарли и Филл находят всё новые и новые нетрадиционные и забавные способы воспитательного воздействия на малышей, и центр «Дежурный папа» становится всё более популярным. Почувствовав жёсткое соперничество со стороны усатых няней, директриса дорогого детского центра решает выжить конкурентов-новичков из бизнеса.
[imdb]http://www.imdb.com/title/tt0317303[/imdb] [kp]http://www.kinopoisk.ru/film/310[/kp]
Качество: HDTVRip / Daddy.Day.Care.(2003).1080i.HDTV.4xRus.Eng.HDCLUB.mkv
Формат: AVI
Видео: 720x400 (16:9), XviD 1799 Кбит/сек / 23.976 fps / Бит/(Пиксели*Кадры) : 0.261
Аудио: Russian: 48 kHz, AC3, 3/2 (L,C,R,l,r) + LFE ch, 448.00 kbps

MediaInfo

Общее
Полное имя : Dejurnyi.papa.2003.D.HDTVRip_[New-Team]_by_avproh.avi
Формат : AVI
Формат/Информация : Audio Video Interleave
Размер файла : 1,46 Гбайт
Продолжительность : 1 ч. 32 м.
Общий поток : 2256 Кбит/сек
Программа кодирования : VirtualDubModRus 1.5.10.2 (build 2542/release)
Библиотека кодирования : VirtualDubMod build 2542/release
Видео
Идентификатор : 0
Формат : MPEG-4 Visual
Профиль формата : Advanced Simple@L5
Параметр BVOP формата : 1
Параметр QPel формата : Нет
Параметр GMC формата : Без точки перехода
Параметр матрицы формата : Выборочная
Идентификатор кодека : XVID
Идентификатор кодека/Подсказка : XviD
Продолжительность : 1 ч. 32 м.
Битрейт : 1799 Кбит/сек
Ширина : 720 пикселей
Высота : 400 пикселей
Соотношение сторон : 16:9
Частота кадров : 23,976 кадра/сек
Цветовое пространство : YUV
Субдискретизация насыщенности : 4:2:0
Битовая глубина : 8 бит
Тип развёртки : Прогрессивная
Метод сжатия : С потерями
Бит/(Пиксели*Кадры) : 0.261
Размер потока : 1,16 Гбайт (80%)
Библиотека кодирования : XviD 73
Аудио
Идентификатор : 1
Формат : AC-3
Формат/Информация : Audio Coding 3
Расширение режима : CM (complete main)
Параметр Endianness формата : Big
Идентификатор кодека : 2000
Продолжительность : 1 ч. 32 м.
Вид битрейта : Постоянный
Битрейт : 448 Кбит/сек
Каналы : 6 каналов
Расположение каналов : Front: L C R, Side: L R, LFE
Частота : 48,0 КГц
Битовая глубина : 16 бит
Метод сжатия : С потерями
Размер потока : 296 Мбайт (20%)
Выравнивание : Разделение по промежуткам
Продолжительность промежутка : 42 мс. (1,00 видеокадр)
Время предзагрузки промежутка : 500 мс.

Скриншоты:

With ratio 0.05 you can not download torrents

Похожие темы


Last edited by Dream on 2015-09-29 18:12; edited 1 time in total
[Profile] [PM]
Display posts:    
Reply to topic

Current time is: 26-Nov 17:44

All times are UTC ± 0



You cannot post new topics in this forum
You cannot reply to topics in this forum
You cannot edit your posts in this forum
You cannot delete your posts in this forum
You cannot vote in polls in this forum
You cannot attach files in this forum
You can download files in this forum