Уловки Норбита / Norbit (2007) BDRip-AVC

Reply to topic
DL-List and Torrent activity
Size:  3.22 GB   |    Registered:  5 years 1 month   |    Completed:  0 times

Seeder not seen: 5 years 1 month

 
   
 
 
 
Author Message

Dream ®

Gender: Male

Longevity: 3 years 6 months

Posts: 2164



Награды: None

Post 29-Sep-2015 15:59

[Quote]


Название: Уловки Норбита
Оригинальное название: Norbit
Год выпуска: 2007
Страна: США
Жанр: драма, мелодрама, комедия
Продолжительность:
Перевод: 01:42:05
Режиссёр: Брайан Роббинс
В ролях: Эдди Мёрфи, Тэнди Ньютон, Терри Крюс, Клифтон Пауэлл, Лестер Спейт, Кьюба Гудинг мл., Эдди Гриффин, Кэт Уильямс, Флойд Левайн, Энтони Расселл, Пэт Кроуфорд Браун, Жанетт Миллер, Майкл Коляр, Марлон Уайанс, Алексис Ри, Хамани Гриффин, Остин Рейд, Линдси Симс-Льюис, Хина Андерсон, Кристен Шааль, Роб Хюбел, Майкл Восслер, Трэвис Восслер, Мэйсон Найт, Джонатан Робинсон, Ив Лола Ст. Виль, Ричард Гант, Сьюзэн Бьюбиан, Джон Гэйтинс, Лаура Ортиз, Майлз Роббинс, Чарльз К. Мёрфи, Хейли Норман, Сара Сэндерсон, Смит Чо, Эстер Фридман, Лонни Хендерсон, Кармен Рохас, Марианн Мюллерлейл, Фрэнк Лэнгли, Дональд Джонсон, Грета Боммельже
Описание: Жизнь Норбита с самого детства была полна испытаний и разочарований. Брошенный родителями у дверей китайского ресторанчика и воспитанный мистером Вонгом, с начальной школы он был обречён ходить в ухажерах монструозной Распутии. Не смея возразить своей защитнице, герой смиренно собирается вести её к алтарю, как в город возвращается любовь всей жизни Норбита, прекрасная Кейт. Теперь ему предстоит как-то избавиться от деспотичной Распутии и завоевать сердце Кейт...
[imdb]http://www.imdb.com/title/tt0477051[/imdb] [kp]http://www.kinopoisk.ru/film/195557[/kp]
Качество: BDRip AVC Сравнение с исходником
Формат: MKV
Видео: MPEG-4 AVC, 3081 Кбит/с, 1024x576, 23,976 кадра/с
Аудио 1: русский, AC3, 448 kbps, 6 ch, 48 kHz [дублированный]
Аудио 2: русский, AC3, 448 kbps, 6 ch, 48 kHz [профессиональный многоголосый]
Аудио 3: английский, AC3, 448 kbps, 6 ch, 48 kHz [оригинал]
Субтитры 1: русские
Субтитры 2: английские

Награды

Оскар, 2008 год
Номинации (1):
Лучший грим
Золотая малина, 2008 год
Победитель (3):
Худшая мужская роль ( Эдди Мёрфи )
Худшая мужская роль второго плана ( Эдди Мёрфи )
Худшая женская роль второго плана ( Эдди Мёрфи )
Номинации (4):
Худший фильм
Худший режиссер (Брайан Роббинс)
Худший сценарий
Худшая экранная пара — «Эдди Мерфи в роли Норбита и Эдди Мерфи в роли Мистера Вонга или Эдди Мерфи в роли Норбита и Эдди Мерфи в роли Распутии»

Инфо-файл

Общее
Уникальный идентификатор : 209070640454013468228639852143810164886 (0x9D498A6AF064AB2E98E7FA5F2B23B896)
Полное имя : D:VideoУловки Норбита.2007.BDRip.AVC.mkv
Формат : Matroska
Версия формата : Version 4 / Version 2
Размер файла : 3,22 Гбайт
Продолжительность : 1 ч. 42 м.
Общий поток : 4515 Кбит/сек
Название фильма : BDRip -- STarankov
Дата кодирования : UTC 2015-08-16 13:27:26
Программа кодирования : mkvmerge v8.2.0 ('World of Adventure') 64bit
Библиотека кодирования : libebml v1.3.1 + libmatroska v1.4.2
DURATION : 01:37:17.400000000
NUMBER_OF_FRAMES : 1575
NUMBER_OF_BYTES : 59004
_STATISTICS_WRITING_APP : mkvmerge v8.2.0 ('World of Adventure') 64bit
_STATISTICS_WRITING_DATE_UTC : 2015-08-16 13:27:26
_STATISTICS_TAGS : BPS DURATION NUMBER_OF_FRAMES NUMBER_OF_BYTES
Видео
Идентификатор : 1
Формат : AVC
Формат/Информация : Advanced Video Codec
Профиль формата : High@L4.1
Параметр CABAC формата : Да
Параметр ReFrames формата : 9 кадров
Идентификатор кодека : V_MPEG4/ISO/AVC
Продолжительность : 1 ч. 42 м.
Битрейт : 3081 Кбит/сек
Ширина : 1024 пикселя
Высота : 576 пикселей
Соотношение сторон : 16:9
Режим частоты кадров : Постоянный
Частота кадров : 23,976 кадра/сек
Цветовое пространство : YUV
Субдискретизация насыщенности : 4:2:0
Битовая глубина : 8 бит
Тип развёртки : Прогрессивная
Бит/(Пиксели*Кадры) : 0.218
Размер потока : 2,20 Гбайт (68%)
Библиотека кодирования : x264 core 146 r2538 121396c
Настройки программы : cabac=1 / ref=9 / deblock=1:-3:-3 / analyse=0x3:0x113 / me=umh / subme=10 / psy=1 / psy_rd=1.00:0.15 / mixed_ref=1 / me_range=32 / chroma_me=1 / trellis=2 / 8x8dct=1 / cqm=0 / deadzone=21,11 / fast_pskip=1 / chroma_qp_offset=-3 / threads=6 / lookahead_threads=1 / sliced_threads=0 / nr=0 / decimate=1 / interlaced=0 / bluray_compat=0 / constrained_intra=0 / bframes=10 / b_pyramid=2 / b_adapt=2 / b_bias=0 / direct=1 / weightb=1 / open_gop=0 / weightp=2 / keyint=230 / keyint_min=23 / scenecut=40 / intra_refresh=0 / rc_lookahead=40 / rc=crf / mbtree=0 / crf=19.2 / qcomp=0.60 / qpmin=0 / qpmax=69 / qpstep=4 / vbv_maxrate=40000 / vbv_bufsize=50000 / crf_max=0.0 / nal_hrd=none / filler=0 / ip_ratio=1.40 / pb_ratio=1.30 / aq=1:1.00
Язык : English
Default : Да
Forced : Нет
DURATION : 01:42:05.119000000
NUMBER_OF_FRAMES : 146856
NUMBER_OF_BYTES : 2425856116
_STATISTICS_WRITING_APP : mkvmerge v8.2.0 ('World of Adventure') 64bit
_STATISTICS_WRITING_DATE_UTC : 2015-08-16 13:27:26
_STATISTICS_TAGS : BPS DURATION NUMBER_OF_FRAMES NUMBER_OF_BYTES
Аудио #1
Идентификатор : 2
Формат : AC-3
Формат/Информация : Audio Coding 3
Расширение режима : CM (complete main)
Параметр Endianness формата : Big
Идентификатор кодека : A_AC3
Продолжительность : 1 ч. 42 м.
Вид битрейта : Постоянный
Битрейт : 448 Кбит/сек
Каналы : 6 каналов
Расположение каналов : Front: L C R, Side: L R, LFE
Частота : 48,0 КГц
Метод сжатия : С потерями
Размер потока : 327 Мбайт (10%)
Заголовок : DUB
Язык : Russian
Default : Да
Forced : Нет
Аудио #2
Идентификатор : 3
Формат : AC-3
Формат/Информация : Audio Coding 3
Расширение режима : CM (complete main)
Параметр Endianness формата : Big
Идентификатор кодека : A_AC3
Продолжительность : 1 ч. 42 м.
Вид битрейта : Постоянный
Битрейт : 448 Кбит/сек
Каналы : 6 каналов
Расположение каналов : Front: L C R, Side: L R, LFE
Частота : 48,0 КГц
Метод сжатия : С потерями
Размер потока : 327 Мбайт (10%)
Заголовок : MVO
Язык : Russian
Default : Нет
Forced : Нет
Аудио #3
Идентификатор : 4
Формат : AC-3
Формат/Информация : Audio Coding 3
Расширение режима : CM (complete main)
Параметр Endianness формата : Big
Идентификатор кодека : A_AC3
Продолжительность : 1 ч. 42 м.
Вид битрейта : Постоянный
Битрейт : 448 Кбит/сек
Каналы : 6 каналов
Расположение каналов : Front: L C R, Side: L R, LFE
Частота : 48,0 КГц
Метод сжатия : С потерями
Размер потока : 327 Мбайт (10%)
Заголовок : Original
Язык : English
Default : Нет
Forced : Нет
Текст #1
Идентификатор : 5
Формат : UTF-8
Идентификатор кодека : S_TEXT/UTF8
Идентификатор кодека/Информация : UTF-8 Plain Text
Заголовок : русский
Язык : Russian
Default : Нет
Forced : Нет
Текст #2
Идентификатор : 6
Формат : UTF-8
Идентификатор кодека : S_TEXT/UTF8
Идентификатор кодека/Информация : UTF-8 Plain Text
Заголовок : английский
Default : Нет
Forced : Нет

Скриншоты

With ratio 0.05 you can not download torrents

[Profile] [PM]
Display posts:    
Reply to topic

Current time is: 26-Nov 20:37

All times are UTC ± 0



You cannot post new topics in this forum
You cannot reply to topics in this forum
You cannot edit your posts in this forum
You cannot delete your posts in this forum
You cannot vote in polls in this forum
You cannot attach files in this forum
You can download files in this forum