Нечего терять / Nothing to Lose (1997) WEB-DLRip

Reply to topic
DL-List and Torrent activity
Size:  1.47 GB   |    Registered:  5 years 1 month   |    Completed:  1 time

Seeder not seen: 5 years 1 month

 
   
 
 
 
Author Message

Dream ®

Gender: Male

Longevity: 3 years 6 months

Posts: 2164



Награды: None

Post 29-Sep-2015 15:48

[Quote]


Информация о фильме
Название: Нечего терять
Оригинальное название: Nothing to Lose
Год выхода: 1997
Жанр: комедия, приключения
Режиссер: Стив Одекерк / Steve Oedekerk
В ролях: Мартин Лоуренс, Тим Роббинс, Джон К. МакГинли, Джанкарло Эспозито, Келли Престон, Майкл МакКин, Ребекка Гэйхарт, Сьюзэн Барнс, Ирма П. Холл, Самариа Грэхэм...
О фильме:
Рекламный агент Ник Бим, которому нечего терять… кроме своей обожаемой жены, застает ее в постели с собственным начальником. Доведенный до отчаяния, он садится в машину и уезжает куда глаза глядят.
Но неприятности для него только начинаются, ведь в этот момент другой неудачник выходит на большую дорогу в поисках жертвы. А на горизонте как раз показался автомобиль Ника…
[imdb]http://www.imdb.com/title/tt0119807[/imdb]
Страна: США
Продолжительность: 01:37:58
Перевод: Профессиональный (дублированный), Авторский (одноголосый закадровый) Юрий Живов
Файл
Кодек: XviD
Качество: WEB-DLRip
Видео: 704x400, 23.976 fps, 1743 kbps
Аудио 1: 48.0 KHz, AC3, 2 ch, 192 Kbps.......Профессиональный (дублированный)
Аудио 2: 48.0 KHz, AC3, 2 ch, 192 Kbps.......Юрий Живов

MI

Общее
Полное имя : Nothing to Lose.1997.WEB-DLRip.avi
Формат : AVI
Формат/Информация : Audio Video Interleave
Размер файла : 1,47 Гбайт
Продолжительность : 1 ч. 37 м.
Общий поток : 2141 Кбит/сек
Программа кодирования : VirtualDubMod 1.5.10.2 (build 2542/release)
Библиотека кодирования : VirtualDubMod build 2542/release
Видео
Идентификатор : 0
Формат : MPEG-4 Visual
Профиль формата : Advanced Simple@L5
Параметр BVOP формата : 1
Параметр QPel формата : Нет
Параметр GMC формата : Без точки перехода
Параметр матрицы формата : Выборочная
Идентификатор кодека : XVID
Идентификатор кодека/Подсказка : XviD
Продолжительность : 1 ч. 37 м.
Битрейт : 1743 Кбит/сек
Ширина : 704 пикс.
Высота : 400 пикс.
Соотношение сторон : 16:9
Частота кадров : 23,976 кадр/сек
Цветовое пространство : YUV
Подвыборка цветности : 4:2:0
Битовая глубина : 8 бит
Тип развёртки : Прогрессивная
Метод сжатия : С потерями
Бит/(Пиксели*Кадры) : 0.258
Размер потока : 1,19 Гбайт (81%)
Библиотека кодирования : XviD 73
Аудио #1
Идентификатор : 1
Формат : AC-3
Формат/Информация : Audio Coding 3
Расширение режима : CM (complete main)
Идентификатор кодека : 2000
Продолжительность : 1 ч. 37 м.
Вид битрейта : Постоянный
Битрейт : 192 Кбит/сек
Канал(ы) : 2 канала(ов)
Расположение каналов : Front: L R
Частота : 48,0 КГц
Битовая глубина : 16 бит
Метод сжатия : С потерями
Размер потока : 135 Мбайт (9%)
Выравнивание : Разделение по промежуткам
Продолжительность промежутка : 42 мс. (1,00 видеокадр)
Время предзагрузки промежутка : 500 ms
Аудио #2
Идентификатор : 2
Формат : AC-3
Формат/Информация : Audio Coding 3
Расширение режима : CM (complete main)
Идентификатор кодека : 2000
Продолжительность : 1 ч. 37 м.
Вид битрейта : Постоянный
Битрейт : 192 Кбит/сек
Канал(ы) : 2 канала(ов)
Расположение каналов : Front: L R
Частота : 48,0 КГц
Битовая глубина : 16 бит
Метод сжатия : С потерями
Размер потока : 135 Мбайт (9%)
Выравнивание : Разделение по промежуткам
Продолжительность промежутка : 42 мс. (1,00 видеокадр)
Время предзагрузки промежутка : 500 ms

Скриншоты

With ratio 0.05 you can not download torrents

[Profile] [PM]
Display posts:    
Reply to topic

Current time is: 26-Nov 21:14

All times are UTC ± 0



You cannot post new topics in this forum
You cannot reply to topics in this forum
You cannot edit your posts in this forum
You cannot delete your posts in this forum
You cannot vote in polls in this forum
You cannot attach files in this forum
You can download files in this forum