Эшби / Ashby (2015) WEB-DL 720p | iTunes

Reply to topic
DL-List and Torrent activity
Size:  3.39 GB   |    Registered:  5 years   |    Completed:  2 times

Seeder not seen: 4 years 11 months

 
   
 
 
 
Author Message

Dream ®

Gender: Male

Longevity: 3 years 5 months

Posts: 2164



Награды: None

Post 28-Sep-2015 18:13

[Quote]

Информация о фильме
Название: Эшби
Оригинальное название: Ashby
Год выхода: 2015
Жанр: драма, мелодрама, комедия
Режиссер: Тони МакНамара
В ролях: Микки Рурк, Нат Вулф, Эмма Робертс, Сара Силверман, Кевин Данн, Захари Найтон, Майкл Лернер, Джон Инос III, Стив Култер, Том Ноуики
О фильме:Поступив в университет, Эд начинает дружить со своим соседом Эшби — бывшим киллером ЦРУ, которому осталось жить всего несколько месяцев…
[imdb]http://www.imdb.com/title/tt3774466[/imdb] [kp]http://www.kinopoisk.ru/film/840981[/kp]
Выпущено: США / Head Gear Films, Langley Park Productions, Metrol Technology
Продолжительность: 01:43:00
Озвучивание: Дублированное [iTunes]
Файл
Формат: MKV
Качество: WEB-DL 720p
Видео: 3857 Kb/s, 1280x530
Аудио: Russian / English: AC3, 384 Kb/s (6 ch)
Субтитры: English

MI

Format : Matroska
Format version : Version 4 / Version 2
File size : 3.39 GiB
Duration : 1h 42mn
Overall bit rate : 4 719 Kbps
Encoded date : UTC 2015-09-28 10:57:14
Writing application : mkvmerge v7.2.0 ('On Every Street') 64bit built on Sep 13 2014 15:52:10
Writing library : libebml v1.3.0 + libmatroska v1.4.1
_STATISTICS_WRITING_APP : mkvmerge v7.2.0 ('On Every Street') 64bit built on Sep 13 2014 15:52:10
_STATISTICS_WRITING_DATE_UTC : 2015-09-28 10:57:14
_STATISTICS_TAGS : BPS DURATION NUMBER_OF_FRAMES NUMBER_OF_BYTES
DURATION : 01:42:52.480000000
NUMBER_OF_FRAMES : 192890
NUMBER_OF_BYTES : 296279040
Video
ID : 1
Format : AVC
Format/Info : Advanced Video Codec
Format profile : Main@L3.1
Format settings, CABAC : No
Format settings, ReFrames : 2 frames
Codec ID : V_MPEG4/ISO/AVC
Duration : 1h 42mn
Bit rate : 3 857 Kbps
Width : 1 280 pixels
Height : 530 pixels
Display aspect ratio : 2.40:1
Frame rate mode : Constant
Frame rate : 23.976 fps
Color space : YUV
Chroma subsampling : 4:2:0
Bit depth : 8 bits
Scan type : Progressive
Bits/(Pixel*Frame) : 0.237
Stream size : 2.77 GiB (82%)
Language : English
Default : Yes
Forced : No
Color range : Limited
Color primaries : BT.709
Transfer characteristics : BT.709
Matrix coefficients : BT.709
Audio #1
ID : 2
Format : AC-3
Format/Info : Audio Coding 3
Mode extension : CM (complete main)
Format settings, Endianness : Big
Codec ID : A_AC3
Duration : 1h 42mn
Bit rate mode : Constant
Bit rate : 384 Kbps
Channel(s) : 6 channels
Channel positions : Front: L C R, Side: L R, LFE
Sampling rate : 48.0 KHz
Bit depth : 16 bits
Compression mode : Lossy
Stream size : 283 MiB (8%)
Language : Russian
Default : Yes
Forced : No
Audio #2
ID : 3
Format : AC-3
Format/Info : Audio Coding 3
Mode extension : CM (complete main)
Format settings, Endianness : Big
Codec ID : A_AC3
Duration : 1h 42mn
Bit rate mode : Constant
Bit rate : 384 Kbps
Channel(s) : 6 channels
Channel positions : Front: L C R, Side: L R, LFE
Sampling rate : 48.0 KHz
Bit depth : 16 bits
Compression mode : Lossy
Stream size : 283 MiB (8%)
Language : English
Default : No
Forced : No
Text
ID : 4
Format : UTF-8
Codec ID : S_TEXT/UTF8
Codec ID/Info : UTF-8 Plain Text
Language : English
Default : No
Forced : No

If your ratio falls below 0.3, you will not be able to download Torrents! More about the rating.

[dis-tracker.ru].t10315.torrent 
Torrent: Registered [ 2015-09-28 18:13 ] · 1780C6725E34FA70B5A56945EBEA8892F1A6C0A0

Download .torrent

Download

18 KB

Status: checked
Completed: 2 times
Size: 3.39 GB
terms.php
Похожие темы
[Profile] [PM]
Display posts:    
Reply to topic

Current time is: 25-Oct 17:32

All times are UTC ± 0



You cannot post new topics in this forum
You cannot reply to topics in this forum
You cannot edit your posts in this forum
You cannot delete your posts in this forum
You cannot vote in polls in this forum
You cannot attach files in this forum
You can download files in this forum