Два плюс два [01-04 из 04] (2015) SATRip

Reply to topic
DL-List and Torrent activity
Size:  2.42 GB   |    Registered:  5 years   |    Completed:  1 time

Seeder not seen: 4 years 11 months

 
   
 
 
 
Author Message

Dream ®

Gender: Male

Longevity: 3 years 5 months

Posts: 2164



Награды: None

Post 27-Sep-2015 15:53

[Quote]


Информация о фильме
Название: Два плюс два
Год выхода: 2015
Жанр: Мелодрамма
Режиссер: Александр Итыгилов (младший)
В ролях: Мария Куликова, Олег Штефанко, Максим Дрозд, Константин Соловьёв, Екатерина Молоховская, Дария Боцманова, Вениамин Прибура, Дмитрий Сова, Виктория Булитко, Татьяна Юрикова, Алла Масленникова, Инна Мирошниченко, Дарина Лобода, Лариса Руснак
О фильме:
Александра – учительница, Евгений – лётчик. Их случайная встреча вскоре переросла в глубокое чувство. У Александры есть сын Саша, а у Евгения – дочь Женя. Пара знакомит детей, и они прекрасно находят общий язык. Сашку не может не впечатлить мужественная профессия лётчика Евгения. А Женечка получает от Александры добро и нежность, в которых так нуждается. Всё шло отлично, пока не появилась мать Жени, бывшая жена лётчика. Как объяснить дочке, почему мать считалась мёртвой? И Евгений считает, что теперь у них с Александрой нет счастливого будущего...
Страна: Россия
Производство: Компания SV Cinema, Энерджи фильм продакшен, ABC Film
Продолжительность: ~00:43:00 серия
Перевод: Не требуется
Файл
Кодек: Xvid
Качество: SATRip
Видео: 720x448, 25fps, 1800kbps
Звук: 48 kHz, MPEG Layer 3, 2 ch, ~128.00 kbps avg

Скриншоты

MediaInfo

Общее
Полное имя : D:Dva.plus.dva. (2015) SATRipDva.plus.dva.01.2015.SATRip.avi
Формат : AVI
Формат/Информация : Audio Video Interleave
Размер файла : 597 Мбайт
Продолжительность : 43 м.
Общий поток : 1938 Кбит/сек
Программа кодирования : VirtualDubMod 1.5.10.3 | www.virtualdub-fr.org || (build 2550/release)
Библиотека кодирования : VirtualDubMod build 2550/release
Видео
Идентификатор : 0
Формат : MPEG-4 Visual
Профиль формата : Advanced Simple@L5
Параметр BVOP формата : 2
Параметр QPel формата : Нет
Параметр GMC формата : Без точки перехода
Параметр матрицы формата : Default (MPEG)
Идентификатор кодека : XVID
Идентификатор кодека/Подсказка : XviD
Продолжительность : 43 м.
Битрейт : 1800 Кбит/сек
Ширина : 720 пикселей
Высота : 448 пикселей
Соотношение сторон : 16:10
Частота кадров : 25,000 кадров/сек
Цветовое пространство : YUV
Субдискретизация насыщенности : 4:2:0
Битовая глубина : 8 бит
Тип развёртки : Прогрессивная
Метод сжатия : С потерями
Бит/(Пиксели*Кадры) : 0.223
Размер потока : 554 Мбайт (93%)
Библиотека кодирования : XviD 1.2.1 (UTC 2008-12-04)
Аудио
Идентификатор : 1
Формат : MPEG Audio
Версия формата : Version 1
Профиль формата : Layer 3
Режим : Joint stereo
Расширение режима : MS Stereo
Идентификатор кодека : 55
Идентификатор кодека/Подсказка : MP3
Продолжительность : 43 м.
Вид битрейта : Постоянный
Битрейт : 128 Кбит/сек
Каналы : 2 канала
Частота : 48,0 КГц
Метод сжатия : С потерями
Размер потока : 39,4 Мбайт (7%)
Выравнивание : Соединение по промежуткам
Продолжительность промежутка : 40 мс. (1,00 видеокадр)
Время предзагрузки промежутка : 504 мс.
Библиотека кодирования : LAME3.99r
Настройки программы : -m j -V 4 -q 2 -lowpass 17 -b 128

If your ratio falls below 0.3, you will not be able to download Torrents! More about the rating.

[dis-tracker.ru].t10296.torrent 
Torrent: Registered [ 2015-09-27 15:53 ] · D3C57CBB7EA1175623528C9091CCDBE89098E858

Download .torrent

Download

13 KB

Status: checked
Completed: 1 times
Size: 2.42 GB
terms.php
Похожие темы
[Profile] [PM]
Display posts:    
Reply to topic

Current time is: 26-Oct 07:12

All times are UTC ± 0



You cannot post new topics in this forum
You cannot reply to topics in this forum
You cannot edit your posts in this forum
You cannot delete your posts in this forum
You cannot vote in polls in this forum
You cannot attach files in this forum
You can download files in this forum