Мир Юрского периода / Jurassic World (2015) BDRip 1080p | Лицензия

Reply to topic
DL-List and Torrent activity
Size:  12.69 GB   |    Registered:  5 years 1 month   |    Completed:  5 times

Seeder not seen: 4 years 9 months

 
   
 
 
 
Author Message

Dream ®

Gender: Male

Longevity: 3 years 5 months

Posts: 2164



Награды: None

Post 27-Sep-2015 06:33

[Quote]


Информация о фильме
Название: Мир Юрского периода
Оригинальное название: Jurassic World
Страна: США, Китай
Студия: Universal Pictures, Amblin Entertainment, Legendary Pictures, China Film Co.
Жанр: Фантастика, приключения, боевик
Год выпуска: 2015
Продолжительность: 02:04:22
Перевод: Профессиональный (дублированный)
Cубтитры: Rus, Eng
Оригинальная аудиодорожка: английский
Режиссер: Колин Треворроу / Colin Trevorrow
В ролях: Крис Пратт, Брайс Даллас Ховард, Ник Дж. Робинсон, Тай Симпкинс, Винсент Д’Онофрио, Ирфан Кхан, Омар Си, Б.Д. Вонг, Джейк Джонсон, Джуди Грир
Описание: Действие происходит через 22 года после событий «Парка Юрского периода». На острове Нублар функционирует парк, задуманный Джоном Хэммондом. Но к этому времени посещаемость уже начинает падать, и компания — владелец парка решает открыть новый аттракцион, чтобы привлечь посетителей. И вот снова тысячи людей спешат увидеть Мир Юрского периода, но безопасное на первый взгляд развлечение может обернуться угрозой для всего человечества...
[kp]http://www.kinopoisk.ru/film/594554[/kp]
Тип релиза: BDRip 1080p
Контейнер: MKV
Видео: MPEG-4 AVC, 12.0 Mбит/с, 1920x960, 23,976 fps
Аудио: Rus, DTS, 768 kb/s (6 ch), 48 kHz
Аудио 2: Eng, DTS, 1510 kb/s (6 ch), 48 kHz
Формат субтитров: softsub (SRT)

MediaInfo

Format : Matroska
Format version : Version 4 / Version 2
File size : 12.7 GiB
Duration : 2h 4mn
Overall bit rate : 14.6 Mbps
Movie name : Мир Юрского периода. (Tonik)
Encoded date : UTC 2015-09-26 20:20:10
Writing application : mkvmerge v7.1.0 ('Good Love') 64bit built on Jul 27 2014 13:06:55
Writing library : libebml v1.3.0 + libmatroska v1.4.1
_STATISTICS_WRITING_APP : mkvmerge v7.1.0 ('Good Love') 64bit built on Jul 27 2014 13:06:55
_STATISTICS_WRITING_DATE_UTC : 2015-09-26 20:20:10
_STATISTICS_TAGS : BPS DURATION NUMBER_OF_FRAMES NUMBER_OF_BYTES
DURATION : 02:04:21.079000000
NUMBER_OF_FRAMES : 178887
NUMBER_OF_BYTES : 11502771618
Video
ID : 1
Format : AVC
Format/Info : Advanced Video Codec
Format profile : High@L4.1
Format settings, CABAC : Yes
Format settings, ReFrames : 4 frames
Codec ID : V_MPEG4/ISO/AVC
Duration : 2h 4mn
Bit rate : 12.0 Mbps
Width : 1 920 pixels
Height : 960 pixels
Display aspect ratio : 2.000
Frame rate mode : Constant
Frame rate : 23.976 fps
Color space : YUV
Chroma subsampling : 4:2:0
Bit depth : 8 bits
Scan type : Progressive
Bits/(Pixel*Frame) : 0.273
Stream size : 10.5 GiB (82%)
Writing library : x264 core 142 r2431+42 c69a006 tMod [8-bit@all X86_64]
Encoding settings : cabac=1 / ref=4 / deblock=1:-3:-3 / analyse=0x3:0x133 / me=umh / subme=11 / psy=1 / fade_compensate=0.00 / psy_rd=0.90:0.00 / mixed_ref=1 / me_range=24 / chroma_me=1 / trellis=2 / 8x8dct=1 / cqm=0 / deadzone=21,11 / fast_pskip=0 / chroma_qp_offset=-2 / threads=36 / lookahead_threads=6 / sliced_threads=0 / nr=0 / decimate=0 / interlaced=0 / bluray_compat=0 / constrained_intra=0 / fgo=0 / bframes=8 / b_pyramid=2 / b_adapt=2 / b_bias=0 / direct=3 / weightb=1 / open_gop=0 / weightp=2 / keyint=240 / keyint_min=23 / scenecut=40 / intra_refresh=0 / rc_lookahead=60 / rc=crf / mbtree=1 / crf=19.0000 / qcomp=0.60 / qpmin=0:0:0 / qpmax=69:69:69 / qpstep=4 / vbv_maxrate=40000 / vbv_bufsize=30000 / crf_max=0.0 / nal_hrd=none / filler=0 / ip_ratio=1.40 / aq=1:0.90 / aq-sensitivity=10.00 / aq-factor=1.00:1.00:1.00 / aq2=0 / aq3=0
Language : English
Default : Yes
Forced : No
Audio #1
ID : 2
Format : DTS
Format/Info : Digital Theater Systems
Mode : 16
Format settings, Endianness : Big
Codec ID : A_DTS
Duration : 2h 4mn
Bit rate mode : Constant
Bit rate : 768 Kbps
Channel(s) : 6 channels
Channel positions : Front: L C R, Side: L R, LFE
Sampling rate : 48.0 KHz
Bit depth : 24 bits
Compression mode : Lossy
Stream size : 683 MiB (5%)
Language : Russian
Default : Yes
Forced : No
Audio #2
ID : 3
Format : DTS
Format/Info : Digital Theater Systems
Mode : 16
Format settings, Endianness : Big
Codec ID : A_DTS
Duration : 2h 4mn
Bit rate mode : Constant
Bit rate : 1 509 Kbps
Channel(s) : 6 channels
Channel positions : Front: L C R, Side: L R, LFE
Sampling rate : 48.0 KHz
Bit depth : 24 bits
Compression mode : Lossy
Stream size : 1.31 GiB (10%)
Language : English
Default : No
Forced : No
Text #1
ID : 4
Format : UTF-8
Codec ID : S_TEXT/UTF8
Codec ID/Info : UTF-8 Plain Text
Title : Forced
Language : Russian
Default : Yes
Forced : No
Text #2
ID : 5
Format : UTF-8
Codec ID : S_TEXT/UTF8
Codec ID/Info : UTF-8 Plain Text
Language : Russian
Default : No
Forced : No
Text #3
ID : 6
Format : UTF-8
Codec ID : S_TEXT/UTF8
Codec ID/Info : UTF-8 Plain Text
Language : English
Default : No
Forced : No
Menu
00:00:00.000 : en:Chapter 01
00:06:59.168 : en:Chapter 02
00:11:01.827 : en:Chapter 03
00:18:28.440 : en:Chapter 04
00:25:34.866 : en:Chapter 05
00:31:20.837 : en:Chapter 06
00:39:23.861 : en:Chapter 07
00:44:07.853 : en:Chapter 08
00:48:57.225 : en:Chapter 09
00:55:51.056 : en:Chapter 10
01:01:21.344 : en:Chapter 11
01:09:50.561 : en:Chapter 12
01:15:25.479 : en:Chapter 13
01:23:51.860 : en:Chapter 14
01:30:14.700 : en:Chapter 15
01:36:45.424 : en:Chapter 16
01:41:15.652 : en:Chapter 17
01:47:35.282 : en:Chapter 18
01:53:06.029 : en:Chapter 19
01:55:37.555 : en:Chapter 20
02:04:20.870 : en:Chapter 21

Скриншоты

With ratio 0.05 you can not download torrents

Похожие темы
[Profile] [PM]
Display posts:    
Reply to topic

Current time is: 29-Oct 14:34

All times are UTC ± 0



You cannot post new topics in this forum
You cannot reply to topics in this forum
You cannot edit your posts in this forum
You cannot delete your posts in this forum
You cannot vote in polls in this forum
You cannot attach files in this forum
You can download files in this forum