Королевство обезьян / Monkey Kingdom (2015) BDRip 720p

Reply to topic
 
Author Message

Dream ®

Gender: Male

Longevity: 3 years 5 months

Posts: 2164



Награды: None

Post 27-Sep-2015 06:29

[Quote]


Информация о фильме
Название: Королевство обезьян
Оригинальное название: Monkey Kingdom
Год выхода: 2015
Жанр: документальный
Режиссер: Марк Линфилд, Аластер Фовергилл
В ролях: Тина Фей
О фильме: Документальный фильм о природе, который показывает, как новорождённая обезьянка и её мать пытаются выжить в раздираемой конкуренцией социальной иерархии Храма — действующей группировки обезьян, живущих в древних руинах в дебрях легендарных джунглей Южной Азии.
[imdb]http://www.imdb.com/title/tt3660770[/imdb] [kp]http://www.kinopoisk.ru/film/839112[/kp]
Выпущено: Disneynature
Продолжительность: 01:20:44
Перевод: Дублированный (лицензия)
Файл
Кодек: x264
Качество: BDRip (источник: Blu-ray Disc)
Видео: 1280x692 (1,85:1), 23.976 fps, 3880 kbps
Аудио #1: AC-3, 6 ch, 640 kbps (Rus)
Аудио #2: AC-3, 6 ch, 640 kbps (Eng)
Субтитры: Русские, Английские
Скачать: сэмпл

MI

Общее
Уникальный идентификатор : 242406513964862450461921231114601184008 (0xB65DCBE09ACAFAA3B6E1C50B202B3B08)
Полное имя : Monkey.Kingdom.2015.BDRip.720p.Rus.Eng.mkv
Формат : Matroska
Версия формата : Version 2
Размер файла : 2,91 Гбайт
Продолжительность : 1 ч. 20 м.
Общий поток : 5153 Кбит/сек
Название фильма : Королевство обезьян / Monkey Kingdom (2015)
Дата кодирования : UTC 2015-09-22 04:12:31
Программа кодирования : mkvmerge v5.8.0 ('No Sleep / Pillow') built on Sep 2 2012 15:37:04
Библиотека кодирования : libebml v1.2.3 + libmatroska v1.3.0
Видео
Идентификатор : 1
Формат : AVC
Формат/Информация : Advanced Video Codec
Профиль формата : High@L4.1
Параметр CABAC формата : Да
Параметр ReFrames формата : 7 кадров
Идентификатор кодека : V_MPEG4/ISO/AVC
Продолжительность : 1 ч. 20 м.
Битрейт : 3880 Кбит/сек
Ширина : 1280 пикселей
Высота : 692 пикселя
Соотношение сторон : 1,85:1
Режим частоты кадров : Постоянный
Частота кадров : 23,976 кадра/сек
Цветовое пространство : YUV
Субдискретизация насыщенности : 4:2:0
Битовая глубина : 8 бит
Тип развёртки : Прогрессивная
Бит/(Пиксели*Кадры) : 0.183
Размер потока : 2,13 Гбайт (73%)
Заголовок : Release by AlexKa
Библиотека кодирования : x264 core 148 r2597 e86f3a1
Настройки программы : cabac=1 / ref=7 / deblock=1:-3:-3 / analyse=0x3:0x133 / me=umh / subme=11 / psy=1 / psy_rd=1.00:0.00 / mixed_ref=1 / me_range=32 / chroma_me=1 / trellis=2 / 8x8dct=1 / cqm=0 / deadzone=21,11 / fast_pskip=0 / chroma_qp_offset=-2 / threads=12 / lookahead_threads=3 / sliced_threads=0 / nr=0 / decimate=0 / interlaced=0 / bluray_compat=0 / constrained_intra=0 / bframes=11 / b_pyramid=2 / b_adapt=2 / b_bias=0 / direct=3 / weightb=1 / open_gop=0 / weightp=2 / keyint=240 / keyint_min=23 / scenecut=40 / intra_refresh=0 / rc=2pass / mbtree=0 / bitrate=3880 / ratetol=1.0 / qcomp=0.60 / qpmin=0 / qpmax=69 / qpstep=4 / cplxblur=20.0 / qblur=0.5 / ip_ratio=1.40 / pb_ratio=1.30 / aq=1:1.00
Язык : English
Аудио #1
Идентификатор : 2
Формат : AC-3
Формат/Информация : Audio Coding 3
Расширение режима : CM (complete main)
Параметр Endianness формата : Big
Идентификатор кодека : A_AC3
Продолжительность : 1 ч. 20 м.
Вид битрейта : Постоянный
Битрейт : 640 Кбит/сек
Каналы : 6 каналов
Расположение каналов : Front: L C R, Side: L R, LFE
Частота : 48,0 КГц
Метод сжатия : С потерями
Размер потока : 370 Мбайт (12%)
Заголовок : Rus
Язык : Russian
Аудио #2
Идентификатор : 3
Формат : AC-3
Формат/Информация : Audio Coding 3
Расширение режима : CM (complete main)
Параметр Endianness формата : Big
Идентификатор кодека : A_AC3
Продолжительность : 1 ч. 20 м.
Вид битрейта : Постоянный
Битрейт : 640 Кбит/сек
Каналы : 6 каналов
Расположение каналов : Front: L C R, Side: L R, LFE
Частота : 48,0 КГц
Метод сжатия : С потерями
Размер потока : 370 Мбайт (12%)
Заголовок : Eng
Язык : English
Текст #1
Идентификатор : 4
Формат : UTF-8
Идентификатор кодека : S_TEXT/UTF8
Идентификатор кодека/Информация : UTF-8 Plain Text
Заголовок : Rus
Язык : Russian
Текст #2
Идентификатор : 5
Формат : UTF-8
Идентификатор кодека : S_TEXT/UTF8
Идентификатор кодека/Информация : UTF-8 Plain Text
Заголовок : Eng
Язык : English
Меню
00:00:00.000 : en:The Monkeys
00:06:52.036 : en:Inhabitants of Castle Rock
00:09:31.946 : en:Morning Adventures
00:16:18.060 : en:Courtship Season
00:24:23.003 : en:Monsoons and Termites
00:29:45.700 : en:Kip Explores
00:31:50.825 : en:The Lily Pond
00:37:37.588 : en:Maya's Search
00:41:30.154 : en:The House Raid
00:46:28.952 : en:Kumar's Return
00:50:51.548 : en:Invaders
00:55:42.422 : en:A Visit to the City
01:06:12.551 : en:Home Again
01:16:21.827 : en:End Credits

x264

x264 [info]: frame I:1035 Avg QP:16.33 size:185326
x264 [info]: frame P:26370 Avg QP:19.78 size: 43477
x264 [info]: frame B:88731 Avg QP:21.51 size: 11382
x264 [info]: consecutive B-frames: 2.6% 2.2% 8.0% 30.4% 18.8% 26.0% 5.3% 3.8% 1.2% 0.6% 0.6% 0.5%

Скриншоты

[Profile] [PM]
Display posts:    
Reply to topic

Current time is: 30-Oct 12:51

All times are UTC ± 0



You cannot post new topics in this forum
You cannot reply to topics in this forum
You cannot edit your posts in this forum
You cannot delete your posts in this forum
You cannot vote in polls in this forum
You cannot attach files in this forum
You cannot download files in this forum