Футбол. Чемпионат Англии 2015-16. 7 тур. EPL. Лестер Сити – Арсенал (2015) HDTVRip [H.264/720p-LQ]

Reply to topic
DL-List and Torrent activity
Size:  2.69 GB   |    Registered:  5 years   |    Completed:  0 times
Seeders:  2  [  0 KB/s  ]   Show peers in full details
 
   
 
 
 
Author Message

Dream ®

Gender: Male

Longevity: 3 years 4 months

Posts: 2164



Награды: None

Post 26-Sep-2015 18:50

[Quote]

Чемпионат Англии 2015-16. 7 тур. EPL. Лестер Сити – Арсенал. Эфир от 26.09.2015 (2015) HDTVRip [H.264/720p-LQ]

Телекомпания: НТВ+ Футбол 1 HD
Жанр: Спорт, Телепередача
Комментаторы: Александр Елагин
Эфир от: 26.09.2015
Описание:
Чемпионат Англии 2015-16, 7 тур EPL, Лестер Сити – Арсенал.
Продолжительность: 00:53:23 + 00:52:16
Качество видео: HDTVRip
Видео: AVC/H.264, 1280x720 (16:9), ~3479 Kbps
Аудио: AC3, 48 kHz, 2 ch, 128 Kbps
Релиз: rgfootball

MediaInfo:

Общее
Уникальный идентификатор                 : 265885157498374114476268752232591700812 (0xC8079E6076C756E64C8408537368B34C)
Полное имя                               : Z:\EPL_2015_2016_7_day_Leicester_City_Arsenal_720_RGFootball[rgfootball.net]\time_1.mkv
Формат                                   : Matroska
Версия формата                           : Version 2
Размер файла                             : 1,37 Гбайт
Продолжительность                        : 53 м.
Общий поток                              : 3680 Кбит/сек
Программа кодирования                    : Lavf52.64.2
Библиотека кодирования                   : Lavf52.64.2
Видео
Идентификатор                            : 1
Формат                                   : AVC
Формат/Информация                        : Advanced Video Codec
Профиль формата                          : [url=mailto:High@L4.1]High@L4.1[/url]
Параметр CABAC формата                   : Да
Параметр ReFrames формата                : 4 кадра
Параметр GOP формата                     : M=3, N=15
Идентификатор кодека                     : V_MPEG4/ISO/AVC
Продолжительность                        : 53 м.
Битрейт                                  : 3479 Кбит/сек
Ширина                                   : 1280 пикселей
Высота                                   : 720 пикселей
Соотношение сторон                       : 16:9
Соотношение сторон в оригинале           : 16:9
Режим частоты кадров                     : Постоянный
Частота кадров                           : 25,000 кадров/сек
Цветовое пространство                    : YUV
Субдискретизация насыщенности            : 4:2:0
Битовая глубина                          : 8 бит
Тип развёртки                            : Прогрессивная
Бит/(Пиксели*Кадры)                      : 0.151
Размер потока                            : 1,30 Гбайт (95%)
Default                                  : Да
Forced                                   : Нет
Аудио
Идентификатор                            : 2
Формат                                   : AC-3
Формат/Информация                        : Audio Coding 3
Расширение режима                        : CM (complete main)
Параметр Endianness формата              : Big
Идентификатор кодека                     : A_AC3
Продолжительность                        : 53 м.
Вид битрейта                             : Постоянный
Битрейт                                  : 128 Кбит/сек
Каналы                                   : 2 канала
Расположение каналов                     : Front: L R
Частота                                  : 48,0 КГц
Метод сжатия                             : С потерями
Размер потока                            : 48,9 Мбайт (3%)
Язык                                     : Russian
Default                                  : Да
Forced                                   : Нет

Информация о Матче:

Время/Дата: 26 сентября 2015, 17:00
Лига: APL, 7-й тур.
Стадион: Кинг Пауэр - Уолкерс (Лестер, Англия), вместимость: 32262.
Главный судья: Крейг Поусон (Южный Йоркшир, Англия).

Скриншоты




[dis-tracker.ru].t10276.torrent 
 GOLD TORRENT! DOWNLOAD TRAFFIC DOES NOT CONSIDER! 
Torrent: Registered [ 2015-09-26 18:50 ] · F3F0183DCEC9F89D664F8BA0AB41F0FE42444314

Download .torrent

Download

14 KB

Status: checked
Completed: 0 times
Size: 2.69 GB
terms.php
Похожие темы
[Profile] [PM]
Display posts:    
Reply to topic

Current time is: 21-Oct 07:32

All times are UTC ± 0



You cannot post new topics in this forum
You cannot reply to topics in this forum
You cannot edit your posts in this forum
You cannot delete your posts in this forum
You cannot vote in polls in this forum
You cannot attach files in this forum
You can download files in this forum