Rammstein - In Amerika (2015) DVD9

Reply to topic
DL-List and Torrent activity
Size:  14.3 GB   |    Registered:  5 years   |    Completed:  3 times

Seeder not seen: 4 years 9 months

 
   
 
 
 
Author Message

Dream ®

Gender: Male

Longevity: 3 years 5 months

Posts: 2164



Награды: None

Post 26-Sep-2015 07:38

[Quote]


Страна: Germany
Жанр: NDH, Industrial-Metal
Продолжительность: 01:41:56 + 02:02:24 + 00:21:21
Год выпуска: 2015
Лейбл: Island Records / Universal Music Enterprises
ЦитатаКто-то писал:RAMMSTEIN с триумфом вернулись в США 12 ноября 2010 года, выступив перед толпой в 18.000 человек на сцене Madison Square Garden в Нью-Йорке. Спустя пятилетие, 25 сентября этого года концерт под названием «Live From Madison Square Garden» получит официальный релиз на 2DVD и 2Blu-ray стараниями лейбла Island/UMe. Соединив зажигательное выступление немецких индастриал-металлистов с продуманной визуальной концепцией, полуторачасовое шоу записывалось в формате 5.1 surround sound на 14 камер. Дополнительным бонусом станет полнометражный документальный фильм «Rammstein In Amerika» от режиссера Ханнеса Россачера (Hannes Rossacher), а также 20-минутный очерк «Making Of Liebe Ist Für Alle Da» о создании шестого альбома RAMMSTEIN, «Liebe Ist Für Alle Da» (2009), который записывался в ноябре/ декабре 2008 года с Сономе, Калифорния.
Двухчасовая документалка «Rammstein In Amerika» содержит архивные материалы, которые охватывают более 20 лет карьеры группы.
DVD1:
Видео: 720x576 (16:9), PAL 25.000 fps, MPEG2 Video ~7200 kbps avg
Аудио#1: 48 kHz, DTS, 3/2 (L,C,R,l,r) + LFE ch, ~755 kbps avg
Аудио#2: 48 kHz, PCM, 2/0 (L,R) ch, ~1536 kbps avg
DVD2:
Видео: 720x576 (16:9), PAL 25.000 fps, MPEG2 Video ~5000-7000 kbps avg
Аудио#1: German: 48 kHz, AC3, 2/0 (L,R) ch, ~256.00 kbps avg
Аудио#2: German: 48 kHz, AC3, 3/2 (L,C,R,l,r) + LFE ch, ~448 kbps avg
Аудио#3: English: 48 kHz, AC3, 2/0 (L,R) ch, ~256.00 kbps avg
Аудио#4: English: 48 kHz, AC3, 3/2 (L,C,R,l,r) + LFE ch, ~448 kbps avg
Субтитры: German, English, Spanish, French, Japanese, Portuguese, Russian

DVD1: Live From Madison Square Garden

[01]. Rammlied
[02]. B*********
[03]. Waidmanns Heil
[04]. Keine Lust
[05]. Weisses Fleisch
[06]. Feuer Frei!
[07]. Weiner Blut
[08]. Fruhlіng in Paris
[09]. Ich Tu Dir Weh
[10]. Du Reichst So Gut
[11]. Benzin
[12]. Links 2 3 4
[13]. Du Hast
[14]. Pussy
[15]. Sonne
[16]. Haifisch
[17]. Ich Will
[18]. Engel

DVD2:

[01]. Dоcumentary: Rammstein In Amerika
[02]. Makіng Of: Liebe Ist Für Alle Da

MI

Общее
Полное имя : Rammstein - In Amerika (2015) [2xDVD9]/DVD1/VIDEO_TS/VTS_01_1.VOB
Формат : MPEG-PS
Размер файла : 1024 Мбайт
Продолжительность : 14 м.
Общий поток : 9666 Кбит/сек
Видео
Идентификатор : 224 (0xE0)
Формат : MPEG Video
Версия формата : Version 2
Профиль формата : Main@Main
Параметр BVOP формата : Да
Параметр матрицы формата : Выборочная
Параметр GOP формата : M=3, N=12
Продолжительность : 14 м.
Максимальный битрейт : 7200 Кбит/сек
Ширина : 720 пикселей
Высота : 576 пикселей
Соотношение сторон : 16:9
Частота кадров : 25,000 кадров/сек
Стандарт вещания : PAL
Цветовое пространство : YUV
Субдискретизация насыщенности : 4:2:0
Битовая глубина : 8 бит
Тип развёртки : Прогрессивная
Метод сжатия : С потерями
Временной код первого кадра : 00:00:00:00
Оригинал временного кода : Group of pictures header
GOP, открыто/закрыто : Закрыто
Основные цвета : BT.601 PAL
Характеристики трансфера : BT.470 System B, BT.470 System G
Коэффициенты матрицы : BT.601
Аудио #1
Идентификатор : 209 (0xD1)
Формат : MPEG Audio
Метод сжатия : С потерями
Аудио #2
Идентификатор : 189 (0xBD)-137 (0x89)
Формат : DTS
Формат/Информация : Digital Theater Systems
Режим : 16
Параметр Endianness формата : Big
Режим смешивания : DVD-Video
Продолжительность : 14 м.
Вид битрейта : Постоянный
Битрейт : 755 Кбит/сек
Каналы : 6 каналов
Расположение каналов : Front: L C R, Side: L R, LFE
Частота : 48,0 КГц
Битовая глубина : 24 бит
Метод сжатия : С потерями
Размер потока : 79,9 Мбайт (8%)
Аудио #3
Идентификатор : 189 (0xBD)-160 (0xA0)
Формат : PCM
Параметр Endianness формата : Big
Параметр Sign формата : Signed
Режим смешивания : DVD-Video
Продолжительность : 14 м.
Вид битрейта : Постоянный
Битрейт : 1536 Кбит/сек
Каналы : 2 канала
Частота : 48,0 КГц
Битовая глубина : 16 бит
Размер потока : 163 Мбайт (16%)

Скриншоты

[dis-tracker.ru].t10259.torrent 
 GOLD TORRENT! DOWNLOAD TRAFFIC DOES NOT CONSIDER! 
Torrent: Registered [ 2015-09-26 07:38 ] · 28E15CCE09D119044BCD079226ACFA5AA47BF9A5

Download .torrent

Download

74 KB

Status: checked
Completed: 3 times
Size: 14.3 GB
terms.php
Похожие темы
[Profile] [PM]
Display posts:    
Reply to topic

Current time is: 25-Oct 16:07

All times are UTC ± 0



You cannot post new topics in this forum
You cannot reply to topics in this forum
You cannot edit your posts in this forum
You cannot delete your posts in this forum
You cannot vote in polls in this forum
You cannot attach files in this forum
You can download files in this forum