Лила и Ева / Lila & Eve (Чарльз Стоун III) [2015, триллер, драма, HDRip] VM (Victory-Films)

Reply to topic
DL-List and Torrent activity
Size:  1.46 GB   |    Registered:  5 years   |    Completed:  11 times

Seeder not seen: 4 years 10 months

 
   
 
 
 
Author Message

adeei ®

Gender: Male

Longevity: 5 years 2 months

Posts: 150



Награды: None

Post 25-Sep-2015 18:13

[Quote]

Лила и Ева / Lila & Eve «Torn by loss. Bound for revenge» Год выхода: 2015
Жанр: триллер, драма
Выпущено: США / A+E Studios, ChickFlick Productions, JuVee Productions, Lifetime Films
Продолжительность: 01:33:57
Озвучивание: Любительское (многоголосое) [Victory-Films - Андрей Питерский, Камила Юнусова, Валентина Чеботкова], перевод [zahra, lext_2009, Trident]-Режиссер: Чарльз Стоун III-В ролях: Дженнифер Лопез, Виола Дэвис, Ши Уигхэм, Амл Амин,Андре Ройо, Крис Чок, Джулиус Теннон, Миколь Уайт, Йолонда Росс, Уилл Бриттейн-Описание: Две обезумевшие матери, чьи дети были застрелены, объединяются чтобы отомстить убийцам после того, как понимают, что местные власти не в состоянии принять необходимые меры…-[imdb]http://www.imdb.com/title/tt3442990/[/imdb] [kp]http://www.kinopoisk.ru/film/819104/[/kp] -Формат: AVI
Качество: HDRip
Видео: XviD, 1576 kb/s, 720x384
Аудио#1: Russian, AC3, 192 kb/s (2 ch)
Аудио#2: English, AC3, 448 kb/s (6 ch)-

Медио инфо

Общее
Полное имя : D:\ftp\Lila.And.Eve.2015.HDRip.1460.avi
Формат : AVI
Формат/Информация : Audio Video Interleave
Размер файла : 1,46 Гбайт
Продолжительность : 1 ч. 33 м.
Общий поток : 2230 Кбит/сек
Программа кодирования : VirtualDubMod 1.5.10.3 | www.virtualdub-fr.org || (build 2550/release)
Библиотека кодирования : VirtualDubMod build 2550/release
Видео
Идентификатор : 0
Формат : MPEG-4 Visual
Профиль формата : Advanced Simple@L5
Параметр BVOP формата : 1
Параметр QPel формата : Нет
Параметр GMC формата : Без точки перехода
Параметр матрицы формата : Default (H.263)
Идентификатор кодека : XVID
Идентификатор кодека/Подсказка : XviD
Продолжительность : 1 ч. 33 м.
Битрейт : 1576 Кбит/сек
Ширина : 720 пикселей
Высота : 384 пикселя
Соотношение сторон : 1,85:1
Частота кадров : 23,976 кадра/сек
Цветовое пространство : YUV
Субдискретизация насыщенности : 4:2:0
Битовая глубина : 8 бит
Тип развёртки : Прогрессивная
Метод сжатия : С потерями
Бит/(Пиксели*Кадры) : 0.238
Размер потока : 1,03 Гбайт (71%)
Библиотека кодирования : XviD 1.2.1 (UTC 2008-12-04)
Аудио #1
Идентификатор : 1
Формат : AC-3
Формат/Информация : Audio Coding 3
Расширение режима : CM (complete main)
Параметр Endianness формата : Big
Идентификатор кодека : 2000
Продолжительность : 1 ч. 33 м.
Вид битрейта : Постоянный
Битрейт : 192 Кбит/сек
Каналы : 2 канала
Расположение каналов : Front: L R
Частота : 48,0 КГц
Битовая глубина : 16 бит
Метод сжатия : С потерями
Размер потока : 129 Мбайт (9%)
Выравнивание : Соединение по промежуткам
Продолжительность промежутка : 42 мс. (1,00 видеокадр)
Время предзагрузки промежутка : 512 мс.
Аудио #2
Идентификатор : 2
Формат : AC-3
Формат/Информация : Audio Coding 3
Расширение режима : CM (complete main)
Параметр Endianness формата : Big
Идентификатор кодека : 2000
Продолжительность : 1 ч. 33 м.
Вид битрейта : Постоянный
Битрейт : 448 Кбит/сек
Каналы : 6 каналов
Расположение каналов : Front: L C R, Side: L R, LFE
Частота : 48,0 КГц
Битовая глубина : 16 бит
Метод сжатия : С потерями
Размер потока : 301 Мбайт (20%)
Выравнивание : Разделение по промежуткам
Продолжительность промежутка : 42 мс. (1,00 видеокадр)
Время предзагрузки промежутка : 500 мс.
-

If your ratio falls below 0.3, you will not be able to download Torrents! More about the rating.

[dis-tracker.ru].t10243.torrent 
Torrent: Registered [ 2015-09-25 18:13 ] · C73DC9BAD4F3FDBB223205DB30B03713AA91E3DD

Download .torrent

Download

2 KB

Status: checked
Completed: 11 times
Size: 1.46 GB
terms.php
Похожие темы
[Profile] [PM]
Display posts:    
Reply to topic

Current time is: 25-Oct 11:14

All times are UTC ± 0



You cannot post new topics in this forum
You cannot reply to topics in this forum
You cannot edit your posts in this forum
You cannot delete your posts in this forum
You cannot vote in polls in this forum
You cannot attach files in this forum
You can download files in this forum