Третий лишний 2 / Ted 2 (Сет МакФарлейн0) [2015 г., Комедия, WEB-DLRip 720p] iTunes

Reply to topic
DL-List and Torrent activity
Size:  3.51 GB   |    Registered:  5 years 1 month   |    Completed:  14 times

Seeder not seen: 4 years 9 months

 
   
 
 
 
Author Message

Record ®

Gender: Male

Longevity: 5 years 1 month

Posts: 20



Награды: None

Post 24-Sep-2015 18:59

[Quote]

Третий лишний 2 / Ted 2- Год выхода: 2015
Страна: США
Жанр: Комедия
Продолжительность: 01:52:43
Перевод: Профессиональный (полное дублирование) |iTunes|-Режиссер: Сет МакФарлейн-В ролях: Марк Уолберг, Сет МакФарлейн, Аманда Сайфред, Джованни Рибизи, Джон Слэттери, Морган Фриман, Джессика Барт, Сэм Дж. Джонс, Патрик Варбертон, Майкл Дорн-Описание: Плюшевый беспредельщик продолжает сводить с ума чопорную интеллигенцию. На этот раз говорящий медвежонок с большим эго и его длинноногая блондинка решили завести ребёнка. Там, где не постаралась природа, на помощь приходят звёздные доноры, городские сумасшедшие и верный друг Джонни. Он только что расстался с Лори и готов к новым авантюрам. Третий здесь совсем не лишний.-[imdb]http://www.imdb.com/title/tt2637276/[/imdb] [kp]http://www.kinopoisk.ru/film/731691/[/kp]-Качество: WEB-DLRip 720p
Формат: MKV
Видео кодек: AVC
Аудио кодек: AC3
Видео: 3984 kb/s, 1280x532
Аудио: AC3, 384 kb/s (6 ch)

Mediainfo

Format : Matroska
Format version : Version 4 / Version 2
File size : 3.51 GiB
Duration : 1h 52mn
Overall bit rate : 4 457 Kbps
Encoded date : UTC 2015-09-23 18:10:49
Writing application : mkvmerge v6.9.1 ('Blue Panther') 64bit built on Apr 18 2014 18:23:38
Writing library : libebml v1.3.0 + libmatroska v1.4.1
Video
ID : 1
Format : AVC
Format/Info : Advanced Video Codec
Format profile : Main@L3.1
Format settings, CABAC : No
Format settings, ReFrames : 2 frames
Codec ID : V_MPEG4/ISO/AVC
Duration : 1h 52mn
Bit rate : 3 984 Kbps
Width : 1 280 pixels
Height : 532 pixels
Display aspect ratio : 2.40:1
Frame rate mode : Constant
Frame rate : 23.976 fps
Color space : YUV
Chroma subsampling : 4:2:0
Bit depth : 8 bits
Scan type : Progressive
Bits/(Pixel*Frame) : 0.244
Stream size : 3.14 GiB (89%)
Language : English
Default : Yes
Forced : No
Color primaries : BT.709
Transfer characteristics : BT.709
Matrix coefficients : BT.709
Audio
ID : 2
Format : AC-3
Format/Info : Audio Coding 3
Mode extension : CM (complete main)
Format settings, Endianness : Big
Codec ID : A_AC3
Duration : 1h 52mn
Bit rate mode : Constant
Bit rate : 384 Kbps
Channel(s) : 6 channels
Channel positions : Front: L C R, Side: L R, LFE
Sampling rate : 48.0 KHz
Bit depth : 16 bits
Compression mode : Lossy
Stream size : 310 MiB (9%)
Language : Russian
Default : Yes
Forced : No
Menu
00:00:00.000 : en:глава 1
00:07:18.000 : en:глава 2
00:14:49.000 : en:глава 3
00:19:15.000 : en:глава 4
00:27:35.000 : en:глава 5
00:34:19.000 : en:глава 6
00:42:46.000 : en:глава 7
00:47:59.000 : en:глава 8
00:54:29.000 : en:глава 9
00:58:47.000 : en:глава 10
01:04:08.000 : en:глава 11
01:09:51.000 : en:глава 12
01:12:25.000 : en:глава 13
01:15:19.000 : en:глава 14
01:21:40.000 : en:глава 15
01:26:38.000 : en:глава 16
01:31:13.000 : en:глава 17
01:36:46.000 : en:глава 18
01:41:49.000 : en:глава 19
01:45:42.000 : en:глава 20

Скриншоты

With ratio 0.05 you can not download torrents

Похожие темы
[Profile] [PM]
Display posts:    
Reply to topic

Current time is: 29-Oct 13:07

All times are UTC ± 0



You cannot post new topics in this forum
You cannot reply to topics in this forum
You cannot edit your posts in this forum
You cannot delete your posts in this forum
You cannot vote in polls in this forum
You cannot attach files in this forum
You can download files in this forum