Мы всё ещё здесь / We Are Still Here (Тед Гейган) [2015, Ужасы, HDRip] DVO (МЕГАПЫХАРЬ и Элис)

Reply to topic
DL-List and Torrent activity
Size:  1.37 GB   |    Registered:  5 years   |    Completed:  1 time

Seeder not seen: 5 years

 
   
 
 
 
Author Message

adeei ®

Gender: Male

Longevity: 5 years 2 months

Posts: 150



Награды: None

Post 24-Sep-2015 16:56

[Quote]

Мы всё ещё здесь / We Are Still Here«This house needs a family» Год выпуска: 2015
Жанр: Ужасы
Страна: США
Студия: Dark Sky Films, Snowfort Pictures
Продолжительность: 01:23:27
Перевод: Любительский двухголосый [МЕГАПЫХАРЬ и Элис]-Режиссер: Тед Гейган-В ролях: Барбара Крэмптон, Эндрю Сенсениг, Лиза Мари, Ларри Фесенден, Монте Маркэм, Сьюзэн Гибни, Майкл Патрик, Келси Дакота, Гай Гане, Элисса Бри-Описание: Пол и Анна — молодая семейная пара, которая переехала в новый дом. Они очень довольны новым местом жительства и уверены, что переезд станет началом их новой счастливой жизни. Отремонтировав старое здание, они наконец-то могут обустроить его так, как им хочется. Только в подвале пара оставляет все так, как было много лет назад, однако их это совершенно не волнует. Пару даже не пугает тот факт, что в конце девятнадцатого века на месте этого дома было расположено бюро ритуальных услуг, поскольку цена за недвижимость была очень выгодной. Им также известно, что первые владельцы были изгнаны из города, поскольку хозяин похоронного бюро занимался темными делишками. Однако все эти истории из прошлого совершенно никак не влияют на семейную пару, но однажды Анна начинает замечать, что здание действительно хранит в себе некие тайны, о которых им лучше узнать как можно быстрее...-[imdb]http://www.imdb.com/title/tt3520418/[/imdb] [kp]http://www.kinopoisk.ru/film/829628[/kp] -Формат: AVI
Качество: HDRip
Видео: XviD, 1946 Кбит/с, 720x304
Аудио#1: Русский, AC3, 2 ch, 192 Кбит/с
Аудио#2: Английский, AC3, 2 ch, 192 Кбит/с-

Медио инфо

General
Complete name : D:\We.Are.Still.Here.2015.DVO.HDRip.avi
Format : AVI
Format/Info : Audio Video Interleave
File size : 1.37 GiB
Duration : 1h 23mn
Overall bit rate : 2 345 Kbps
Writing application : VirtualDubMod 1.5.10.2 (build 2540/release)
Writing library : VirtualDubMod build 2540/release
Video
ID : 0
Format : MPEG-4 Visual
Format profile : Advanced Simple@L5
Format settings, BVOP : 2
Format settings, QPel : No
Format settings, GMC : No warppoints
Format settings, Matrix : Default (MPEG)
Codec ID : XVID
Codec ID/Hint : XviD
Duration : 1h 23mn
Bit rate : 1 947 Kbps
Width : 720 pixels
Height : 304 pixels
Display aspect ratio : 2.35:1
Frame rate : 23.976 fps
Color space : YUV
Chroma subsampling : 4:2:0
Bit depth : 8 bits
Scan type : Progressive
Compression mode : Lossy
Bits/(Pixel*Frame) : 0.371
Stream size : 1.13 GiB (83%)
Writing library : XviD 1.2.1 (UTC 2008-12-04)
Audio #1
ID : 1
Format : AC-3
Format/Info : Audio Coding 3
Mode extension : CM (complete main)
Format settings, Endianness : Big
Codec ID : 2000
Duration : 1h 23mn
Bit rate mode : Constant
Bit rate : 192 Kbps
Channel(s) : 2 channels
Channel positions : Front: L R
Sampling rate : 48.0 KHz
Compression mode : Lossy
Stream size : 115 MiB (8%)
Alignment : Split accross interleaves
Interleave, duration : 42 ms (1.00 video frame)
Interleave, preload duratio : 500 ms
Audio #2
ID : 2
Format : AC-3
Format/Info : Audio Coding 3
Mode extension : CM (complete main)
Format settings, Endianness : Big
Codec ID : 2000
Duration : 1h 23mn
Bit rate mode : Constant
Bit rate : 192 Kbps
Channel(s) : 2 channels
Channel positions : Front: L R
Sampling rate : 48.0 KHz
Compression mode : Lossy
Stream size : 115 MiB (8%)
Alignment : Split accross interleaves
Interleave, duration : 42 ms (1.00 video frame)
Interleave, preload duratio : 500 ms

Скриншоты

-

If your ratio falls below 0.3, you will not be able to download Torrents! More about the rating.

[dis-tracker.ru].t10215.torrent 
Torrent: Registered [ 2015-09-24 16:56 ] · 1F2218EFB8A19EF7ABFD8F4B00BD9CB0B7637143

Download .torrent

Download

14 KB

Status: checked
Completed: 1 times
Size: 1.37 GB
terms.php
Похожие темы
[Profile] [PM]
Display posts:    
Reply to topic

Current time is: 22-Oct 17:59

All times are UTC ± 0



You cannot post new topics in this forum
You cannot reply to topics in this forum
You cannot edit your posts in this forum
You cannot delete your posts in this forum
You cannot vote in polls in this forum
You cannot attach files in this forum
You can download files in this forum