Пища богов / Feed the Gods (Браден Крофт) [2014, Ужасы, Триллер, Приключения, WEB-DLRip-AVC] DVO (den904 & DeadSno) + Sub (Eng)

Reply to topic
DL-List and Torrent activity
Size:  1.46 GB   |    Registered:  5 years 1 month   |    Completed:  3 times

Seeder not seen: 5 years

 
   
 
 
 
Author Message

adeei ®

Gender: Male

Longevity: 5 years 2 months

Posts: 150



Награды: None

Post 23-Sep-2015 17:06

[Quote]

- Пища богов / Feed the Gods Год выпуска: 2014
Страна: Канада
Студия: BMC Pictures, Compound B, Random Bench Productions
Жанр: Ужасы, Триллер, Приключения
Продолжительность: 01:23:30
Перевод: Любительский двухголосный (den904 & DeadSno / Antonio)
Субтитры: Английский (Вшитые отключаемые)-Режиссер: Браден Крофт-В ролях: Шон Робертс, Эрика Кэрролл, Алекс Паунович, Тайлер Джонстон, Эмили Теннант, Бриттни Ирвин, Гари Чок, Кристин Уиллз, Тара Уилсон, Лэйн Эдвардс
Описание: После смерти приемной матери, два брата с подружкой находят видеокассету и данные о том городе где они родились и решают отправиться на поиски своих родителей. По прибытию в город они начинают понимать, что с самим городом и оставшимися немногочисленными жителями происходит что-то странное и ведут все себя при этом — весьма подозрительно…-[imdb]http://www.imdb.com/title/tt3138024/[/imdb] [kp]http://www.kinopoisk.ru/film/794616/[/kp]-Качество видео: WEB-DLRip-AVC
Формат: MKV
Видео: AVC, 1024x426 (2.40:1), 23.976 fps, 1 921 Kbps (0.184 bit/pixel)
Аудио #1: AC3, 48.0 KHz, 2 ch, 192 Kbps, CBR (Russian)
Аудио #2: AC3, 48.0 KHz, 6 ch, 384 Kbps, CBR (English)-

Скриншоты

Mediainfo:

Формат : Matroska
Версия формата : Version 2
Размер файла : 1,46 Гбайт
Продолжительность : 1 ч. 23 м.
Общий поток : 2499 Кбит/сек
Дата кодирования : UTC 2015-09-23 09:41:39
Программа кодирования : mkvmerge v5.3.0 ('I could have danced') built on Feb 9 2012 10:38:07
Библиотека кодирования : libebml v1.2.3 + libmatroska v1.3.0
Attachment : Yes
Видео
Идентификатор : 1
Формат : AVC
Формат/Информация : Advanced Video Codec
Профиль формата : High@L4.1
Параметр CABAC формата : Да
Параметр ReFrames формата : 9 кадров
Идентификатор кодека : V_MPEG4/ISO/AVC
Продолжительность : 1 ч. 23 м.
Битрейт : 1921 Кбит/сек
Ширина : 1024 пикселя
Высота : 426 пикселей
Соотношение сторон : 2,40:1
Режим частоты кадров : Постоянный
Частота кадров : 23,976 кадра/сек
Цветовое пространство : YUV
Субдискретизация насыщенности : 4:2:0
Битовая глубина : 8 бит
Тип развёртки : Прогрессивная
Бит/(Пиксели*Кадры) : 0.184
Размер потока : 1,09 Гбайт (75%)
Библиотека кодирования : x264 core 146 r2538 121396c
Настройки программы : cabac=1 / ref=9 / deblock=1:-3:-3 / analyse=0x3:0x133 / me=umh / subme=10 / psy=1 / psy_rd=1.00:0.00 / mixed_ref=1 / me_range=32 / chroma_me=1 / trellis=2 / 8x8dct=1 / cqm=0 / deadzone=21,11 / fast_pskip=0 / chroma_qp_offset=-2 / threads=12 / lookahead_threads=1 / sliced_threads=0 / nr=0 / decimate=0 / interlaced=0 / bluray_compat=0 / constrained_intra=0 / bframes=6 / b_pyramid=2 / b_adapt=2 / b_bias=0 / direct=3 / weightb=1 / open_gop=0 / weightp=2 / keyint=240 / keyint_min=23 / scenecut=40 / intra_refresh=0 / rc=2pass / mbtree=0 / bitrate=1921 / ratetol=1.0 / qcomp=0.60 / qpmin=0 / qpmax=69 / qpstep=4 / cplxblur=20.0 / qblur=0.5 / ip_ratio=1.40 / pb_ratio=1.30 / aq=1:1.00
Язык : English
Default : Да
Forced : Нет
Аудио #1
Идентификатор : 2
Формат : AC-3
Формат/Информация : Audio Coding 3
Расширение режима : CM (complete main)
Параметр Endianness формата : Big
Идентификатор кодека : A_AC3
Продолжительность : 1 ч. 23 м.
Вид битрейта : Постоянный
Битрейт : 192 Кбит/сек
Каналы : 2 канала
Расположение каналов : Front: L R
Частота : 48,0 КГц
Битовая глубина : 16 бит
Метод сжатия : С потерями
Размер потока : 115 Мбайт (8%)
Язык : Russian
Default : Да
Forced : Нет
Аудио #2
Идентификатор : 3
Формат : AC-3
Формат/Информация : Audio Coding 3
Расширение режима : CM (complete main)
Параметр Endianness формата : Big
Идентификатор кодека : A_AC3
Продолжительность : 1 ч. 23 м.
Вид битрейта : Постоянный
Битрейт : 384 Кбит/сек
Каналы : 6 каналов
Расположение каналов : Front: L C R, Side: L R, LFE
Частота : 48,0 КГц
Битовая глубина : 16 бит
Метод сжатия : С потерями
Размер потока : 229 Мбайт (15%)
Язык : English
Default : Нет
Forced : Нет
Текст
Идентификатор : 4
Формат : UTF-8
Идентификатор кодека : S_TEXT/UTF8
Идентификатор кодека/Информация : UTF-8 Plain Text
Язык : English
Default : Нет
Forced : Нет
Меню
00:00:00.000 : en:1
00:05:38.000 : en:2
00:10:56.000 : en:3
00:16:23.000 : en:4
00:19:49.000 : en:5
00:24:32.000 : en:6
00:29:32.000 : en:7
00:35:34.000 : en:8
00:40:24.000 : en:9
00:46:07.000 : en:10
00:50:46.000 : en:11
00:53:06.000 : en:12
00:59:26.000 : en:13
01:05:35.000 : en:14
01:11:31.000 : en:15
01:18:56.000 : en:16
-

With ratio 0.05 you can not download torrents

Похожие темы


Last edited by adeei on 2015-09-23 17:58; edited 1 time in total
[Profile] [PM]

IVAN@190282

Gender: Male

Longevity: 5 years 2 months

Posts: 408

Location: Иваново



Награды: 3 (Подробнее)

Активный релизер (200 релизов) (Количество: 1) Активный релизер (250 релизов) (Количество: 1) Активный релизер (300 релизов) (Количество: 1)

Post 23-Sep-2015 17:36 (after 29 minutes)

[Quote]

Почему ваш релиз снова не в том разделе в каком нужно!!?
Я Вам уже говорил чтобы вы были внимательнее!
[Profile] [PM]

IVAN@190282

Gender: Male

Longevity: 5 years 2 months

Posts: 408

Location: Иваново



Награды: 3 (Подробнее)

Активный релизер (200 релизов) (Количество: 1) Активный релизер (250 релизов) (Количество: 1) Активный релизер (300 релизов) (Количество: 1)

Post 23-Sep-2015 17:48 (after 11 minutes)

[Quote]

Перезалейте торрент файл!
[Profile] [PM]
Display posts:    
Reply to topic

Current time is: 29-Oct 05:27

All times are UTC ± 0



You cannot post new topics in this forum
You cannot reply to topics in this forum
You cannot edit your posts in this forum
You cannot delete your posts in this forum
You cannot vote in polls in this forum
You cannot attach files in this forum
You can download files in this forum