Пиксели / Pixels (2015) WEBRip | Звук с TS

Reply to topic
DL-List and Torrent activity
Size:  700 MB   |    Registered:  5 years 1 month   |    Completed:  4 times

Seeder not seen: 5 years

 
   
 
 
 
Author Message

Dream ®

Gender: Male

Longevity: 3 years 5 months

Posts: 2164



Награды: None

Post 23-Sep-2015 11:25

[Quote]

Информация о фильме
Название: Пиксели
Оригинальное название: Pixels
Год выхода: 2015
Жанр: фантастика, боевик, комедия
Режиссер: Крис Коламбус
В ролях: Адам Сэндлер, Кевин Джеймс, Мишель Монахэн, Питер Динклэйдж, Джош Гэд, Брайан Кокс, Мэттью Линтц, Шон Бин, Джейн Краковски, Дэн Эйкройд
О фильме: Очередное вторжение инопланетян на Землю… Вы скажете: «Что может быть банальнее?!». Да, если бы на этот раз они не предстали в виде героев вселенски популярных компьютерных игр. Сражаться с пришельцами призвана команда бывших геймеров, в числе которых: Президент Соединенных Штатов Америки; карлик-зэк, большой ценитель прекрасного пола; зануда-параноик, свято верящий в теорию вселенского заговора; профессиональный неудачник и циник, в детстве подававший большие надежды. А помогает новоиспеченным героям очаровательная ученая фея.
[imdb]http://www.imdb.com/title/tt2120120[/imdb] [kp]http://www.kinopoisk.ru/film/651628[/kp]

Выпущено: США
Продолжительность: 01:45:42
Озвучивание: Дублированное [звук с TS]
Файл
Формат: AVI(XviD)
Качество: WEBRip
Видео: 786 kb/s, 640x264
Аудио: AC3, 128 kb/s (2 ch)
Размер: 700 MB
Скачать: Сэмпл---

Media Info

General
Complete name : C:UsersuserDesktopP1cs3l1.2015.Dt.WEBRip.700MB.avi
Format : AVI
Format/Info : Audio Video Interleave
File size : 700 MiB
Duration : 1h 45mn
Overall bit rate : 926 Kbps
Writing application : VirtualDubMod 1.5.10.2 (build 2540/release)
Writing library : VirtualDubMod build 2540/release
Video
ID : 0
Format : MPEG-4 Visual
Format profile : Advanced Simple@L5
Format settings, BVOP : 2
Format settings, QPel : No
Format settings, GMC : No warppoints
Format settings, Matrix : Default (MPEG)
Codec ID : XVID
Codec ID/Hint : XviD
Duration : 1h 45mn
Bit rate : 786 Kbps
Width : 640 pixels
Height : 264 pixels
Display aspect ratio : 2.40:1
Frame rate : 30.000 fps
Color space : YUV
Chroma subsampling : 4:2:0
Bit depth : 8 bits
Scan type : Progressive
Compression mode : Lossy
Bits/(Pixel*Frame) : 0.155
Stream size : 594 MiB (85%)
Writing library : XviD 1.2.1 (UTC 2008-12-04)
Audio
ID : 1
Format : AC-3
Format/Info : Audio Coding 3
Mode extension : CM (complete main)
Format settings, Endianness : Big
Codec ID : 2000
Duration : 1h 45mn
Bit rate mode : Constant
Bit rate : 128 Kbps
Channel(s) : 2 channels
Channel positions : Front: L R
Sampling rate : 48.0 KHz
Compression mode : Lossy
Stream size : 96.8 MiB (14%)
Alignment : Split accross interleaves
Interleave, duration : 33 ms (1.00 video frame)
Interleave, preload duration : 500 ms

Скриншоты

-

With ratio 0.05 you can not download torrents

Похожие темы
[Profile] [PM]
Display posts:    
Reply to topic

Current time is: 29-Oct 13:03

All times are UTC ± 0



You cannot post new topics in this forum
You cannot reply to topics in this forum
You cannot edit your posts in this forum
You cannot delete your posts in this forum
You cannot vote in polls in this forum
You cannot attach files in this forum
You can download files in this forum