MTV Video Music Awards (2015) HDTVRip 1080p

Reply to topic
DL-List and Torrent activity
Size:  29.77 GB   |    Registered:  5 years 1 month   |    Completed:  2 times

Seeder not seen: 5 years

 
   
 
 
 
Author Message

Dream ®

Gender: Male

Longevity: 3 years 5 months

Posts: 2164



Награды: None

Post 22-Sep-2015 19:57

[Quote]


Название/Исполнитель:
MTV Video Music Awards (2015) + Pre-show
Год выхода: 2015
Жанр: Pop
Качество: HDTVRip
Видео:
1)Show | 1920x1080 | 25,000 fps | 26,5 Мбит/сек
2)Pre-show | 1920x1080 | 25,000 fps | 26,4 Мбит/сек
Звук:
1)Show | AC3 | 2 channels | 48 kHz | 384 Кбит/сек
2)Pre-show | AC3 | 2 channels | 48 kHz | 384 Кбит/сек
Продолжительность:
02:34:12

MediaInfo Show

Видео
Идентификатор : 1
Формат : MPEG Video
Версия формата : Version 2
Профиль формата : Main@High
Параметр BVOP формата : Нет
Параметр матрицы формата : Выборочная
Параметр GOP формата : N=15
Структура изображения : Frame
Идентификатор кодека : V_MPEG2
Идентификатор кодека/Информация : MPEG 1 or 2 Video
Продолжительность : 1 ч. 43 м.
Вид битрейта : Переменный
Битрейт : 26,5 Мбит/сек
Максимальный битрейт : 27,4 Мбит/сек
Ширина : 1920 пикселей
Высота : 1080 пикселей
Соотношение сторон : 16:9
Режим частоты кадров : Постоянный
Частота кадров : 25,000 кадров/сек
Цветовое пространство : YUV
Субдискретизация насыщенности : 4:2:0
Битовая глубина : 8 бит
Тип развёртки : Чересстрочная
Порядок развёртки : Верхнее поле первое
Метод сжатия : С потерями
Бит/(Пиксели*Кадры) : 0.511
Временной код первого кадра : 00:15:36:15
Оригинал временного кода : Group of pictures header
GOP, открыто/закрыто : Закрыто
Размер потока : 19,2 Гбайт (97%)
Заголовок : « R.G 60-FPS Rip By Kamikkadze »
Default : Да
Forced : Нет
Основные цвета : BT.709
Характеристики трансфера : BT.709
Коэффициенты матрицы : BT.709
Аудио
Идентификатор : 2
Формат : AC-3
Формат/Информация : Audio Coding 3
Расширение режима : CM (complete main)
Параметр Endianness формата : Big
Идентификатор кодека : A_AC3
Продолжительность : 1 ч. 43 м.
Вид битрейта : Постоянный
Битрейт : 384 Кбит/сек
Каналы : 2 канала
Расположение каналов : Front: L R
Частота : 48,0 КГц
Метод сжатия : С потерями
Размер потока : 286 Мбайт (1%)
Заголовок : MTV Video Music Awards 2015 « R.G 60-FPS Rip By Kamikkadze »
Default : Да
Forced : Нет

MediaInfo Pre-show

Видео
Идентификатор : 1
Формат : MPEG Video
Версия формата : Version 2
Профиль формата : Main@High
Параметр BVOP формата : Нет
Параметр матрицы формата : Выборочная
Параметр GOP формата : N=15
Структура изображения : Frame
Идентификатор кодека : V_MPEG2
Идентификатор кодека/Информация : MPEG 1 or 2 Video
Продолжительность : 50 м.
Вид битрейта : Переменный
Битрейт : 26,4 Мбит/сек
Максимальный битрейт : 27,4 Мбит/сек
Ширина : 1920 пикселей
Высота : 1080 пикселей
Соотношение сторон : 16:9
Режим частоты кадров : Постоянный
Частота кадров : 25,000 кадров/сек
Цветовое пространство : YUV
Субдискретизация насыщенности : 4:2:0
Битовая глубина : 8 бит
Тип развёртки : Чересстрочная
Порядок развёртки : Верхнее поле первое
Метод сжатия : С потерями
Бит/(Пиксели*Кадры) : 0.509
Временной код первого кадра : 02:48:27:15
Оригинал временного кода : Group of pictures header
GOP, открыто/закрыто : Закрыто
Размер потока : 9,25 Гбайт (97%)
Заголовок : Pre-show MTV Video Music Awards 2015 « R.G 60-FPS Rip By Kamikkadze »
Default : Да
Forced : Нет
Основные цвета : BT.709
Характеристики трансфера : BT.709
Коэффициенты матрицы : BT.709
Аудио
Идентификатор : 2
Формат : AC-3
Формат/Информация : Audio Coding 3
Расширение режима : CM (complete main)
Параметр Endianness формата : Big
Идентификатор кодека : A_AC3
Продолжительность : 50 м.
Вид битрейта : Постоянный
Битрейт : 384 Кбит/сек
Каналы : 2 канала
Расположение каналов : Front: L R
Частота : 48,0 КГц
Метод сжатия : С потерями
Размер потока : 138 Мбайт (1%)
Default : Да
Forced : Нет

Скриншоты

[dis-tracker.ru].t10189.torrent
 GOLD TORRENT! DOWNLOAD TRAFFIC DOES NOT CONSIDER! 
Torrent: Registered [ 2015-09-22 19:57 ] · B4A23CDFA99D5532179036B991B572EECDFA86B8

Download .torrent

Download

75 KB

Status: checked
Completed: 2 times
Size: 29.77 GB
terms.php
Похожие темы
[Profile] [PM]
Display posts:    
Reply to topic

Current time is: 29-Oct 08:14

All times are UTC ± 0



You cannot post new topics in this forum
You cannot reply to topics in this forum
You cannot edit your posts in this forum
You cannot delete your posts in this forum
You cannot vote in polls in this forum
You cannot attach files in this forum
You can download files in this forum