В упор / At Close Range (Джеймс Фоули / James Foley) [1986, США, Драма, криминал, BDRip-AVC] MVO + DVO (НТВ +) + AVO (Ю.Сербин) + Sub Eng

Reply to topic
DL-List and Torrent activity
Size:  4.36 GB   |    Registered:  5 years 1 month   |    Completed:  0 times

Seeder not seen: 4 years 8 months

 
   
 
 
 
Author Message

IVAN@190282 ®

Gender: Male

Longevity: 5 years 2 months

Posts: 411

Location: Иваново



Награды: 3 (Подробнее)

Активный релизер (200 релизов) (Количество: 1) Активный релизер (250 релизов) (Количество: 1) Активный релизер (300 релизов) (Количество: 1)

Post 20-Sep-2015 11:24

[Quote]

В упорAt Close Range«Yesterday, Brad was nobody. Today, he's front-page news»

Страна: США
Жанр: Драма, криминал
Год выпуска: 1986
Продолжительность: 01:55:45
Перевод: Профессиональный (многоголосый закадровый) BD
Перевод 2: Профессиональный (двухголосый закадровый) НТВ +
Перевод 3: Авторский (одноголосый закадровый) Ю.Сербин
Cубтитры: английские
Режиссер: Джеймс Фоули / James Foley
В ролях: Шон Пенн, Кристофер Уокен, Мэри Стюарт Мастерсон, Крис Пенн, Милли Перкинс, Айлин Райан, Трейси Уолтер, Р.Д. Колл, Дэвид Стрэтэйрн, Дж. К. Куин
Описание: Отец-преступник вовлекает своего сына в безумную вакханалию жестоких преступлений и убийств. За ними охотятся полиция и ФБР.
Весь мир против них, и вскоре они сами становятся смертельными врагами. Кто из них останется в живых? Будет ли ему нужна эта жизнь?
Доп. информация:
Релиз группы:
Качество видео: BDRip-AVC | В упор / At Close Range (1986) 1080p BD-Remux|HD Club|
Формат видео: MKV
Видео: 1152x492 (2:35:1), 23,976 fps, 4271 Кbps, 0.341 bit/pixe
Аудио: 48 kHz, AC3, 2/0 (L,R) ch, ~192 kbps avg MVO
Аудио 2: 48 kHz, AC3, 2/0 (L,R) ch, ~192 kbps avg НТВ +
Аудио 3: 48 kHz, AC3, 2/0 (L,R) ch, ~192 kbps avg Ю.Сербин отдельно
Аудио 4: 48 kHz, AC3, 2/0 (L,R) ch, ~448 kbps avg ENG
Формат субтитров: softsub (SRT)

MediaInfo

General
Unique ID : 220322290793933796714921911337470164073 (0xA5C0879C18DC72B3AED600321BB87C69)
Complete name : E:\Мои рипы\В Упор\At Close Range by_IVAN@190282.mkv
Format : Matroska
Format version : Version 4 / Version 2
File size : 4.20 GiB
Duration : 1h 55mn
Overall bit rate : 5 198 Kbps
Encoded date : UTC 2015-09-21 20:13:18
Writing application : mkvmerge v8.2.0 ('World of Adventure') 64bit
Writing library : libebml v1.3.1 + libmatroska v1.4.2
Attachements : 232690.jpg
DURATION : 01:55:45.632000000
NUMBER_OF_FRAMES : 217051
NUMBER_OF_BYTES : 388955392
_STATISTICS_WRITING_APP : mkvmerge v8.2.0 ('World of Adventure') 64bit
_STATISTICS_WRITING_DATE_UT : 2015-09-21 20:13:18
_STATISTICS_TAGS : BPS DURATION NUMBER_OF_FRAMES NUMBER_OF_BYTES
Video
ID : 1
Format : AVC
Format/Info : Advanced Video Codec
Format profile : High@L4.1
Format settings, CABAC : Yes
Format settings, ReFrames : 12 frames
Codec ID : V_MPEG4/ISO/AVC
Duration : 1h 55mn
Bit rate : 4 263 Kbps
Width : 1 152 pixels
Height : 492 pixels
Display aspect ratio : 2.35:1
Frame rate mode : Constant
Frame rate : 23.976 fps
Color space : YUV
Chroma subsampling : 4:2:0
Bit depth : 8 bits
Scan type : Progressive
Bits/(Pixel*Frame) : 0.314
Stream size : 3.45 GiB (82%)
Title : At Close Range by_IVAN@190282
Writing library : x264 core 148 r2597kMod e86f3a1
Encoding settings : cabac=1 / ref=12 / deblock=1:-3:-3 / analyse=0x3:0x133 / me=umh / subme=11 / psy=1 / fade_compensate=0.00 / psy_rd=1.00:0.05 / mixed_ref=1 / me_range=48 / chroma_me=1 / trellis=2 / 8x8dct=1 / cqm=0 / deadzone=21,11 / fast_pskip=0 / chroma_qp_offset=-3 / threads=6 / lookahead_threads=6 / sliced_threads=0 / nr=0 / decimate=1 / interlaced=0 / bluray_compat=0 / constrained_intra=0 / fgo=0 / bframes=16 / b_pyramid=2 / b_adapt=2 / b_bias=0 / direct=3 / weightb=1 / open_gop=0 / weightp=2 / keyint=240 / keyint_min=23 / scenecut=40 / intra_refresh=0 / rc_lookahead=60 / rc=crf / mbtree=0 / crf=17.7000 / qcomp=0.60 / qpmin=0 / qpmax=69 / qpstep=4 / vbv_maxrate=50000 / vbv_bufsize=62500 / crf_max=0.0 / nal_hrd=none / filler=0 / ip_ratio=1.40 / pb_ratio=1.30 / aq=2:1.10
Language : English
Default : Yes
Forced : No
Color range : Limited
Color primaries : BT.709
Transfer characteristics : BT.709
Matrix coefficients : BT.709
DURATION : 01:55:45.772000000
NUMBER_OF_FRAMES : 166532
NUMBER_OF_BYTES : 3788727290
_STATISTICS_WRITING_APP : mkvmerge v8.2.0 ('World of Adventure') 64bit
_STATISTICS_WRITING_DATE_UT : 2015-09-21 20:13:18
_STATISTICS_TAGS : BPS DURATION NUMBER_OF_FRAMES NUMBER_OF_BYTES
Audio #1
ID : 2
Format : AC-3
Format/Info : Audio Coding 3
Mode extension : CM (complete main)
Format settings, Endianness : Big
Codec ID : A_AC3
Duration : 1h 55mn
Bit rate mode : Constant
Bit rate : 192 Kbps
Channel(s) : 2 channels
Channel positions : Front: L R
Sampling rate : 48.0 KHz
Compression mode : Lossy
Stream size : 159 MiB (4%)
Title : MVO
Language : Russian
Default : Yes
Forced : No
Audio #2
ID : 3
Format : AC-3
Format/Info : Audio Coding 3
Mode extension : CM (complete main)
Format settings, Endianness : Big
Codec ID : A_AC3
Duration : 1h 55mn
Bit rate mode : Constant
Bit rate : 192 Kbps
Channel(s) : 2 channels
Channel positions : Front: L R
Sampling rate : 48.0 KHz
Compression mode : Lossy
Stream size : 159 MiB (4%)
Title : DVO НТВ +
Language : Russian
Default : No
Forced : No
Audio #3
ID : 4
Format : AC-3
Format/Info : Audio Coding 3
Mode extension : CM (complete main)
Format settings, Endianness : Big
Codec ID : A_AC3
Duration : 1h 55mn
Bit rate mode : Constant
Bit rate : 448 Kbps
Channel(s) : 2 channels
Channel positions : Front: L R
Sampling rate : 48.0 KHz
Compression mode : Lossy
Stream size : 371 MiB (9%)
Title : Eng
Language : English
Default : No
Forced : No
Text #1
ID : 5
Format : UTF-8
Codec ID : S_TEXT/UTF8
Codec ID/Info : UTF-8 Plain Text
Title : Eng
Language : English
Default : No
Forced : No
Text #2
ID : 6
Format : UTF-8
Codec ID : S_TEXT/UTF8
Codec ID/Info : UTF-8 Plain Text
Title : Eng
Language : English
Default : No
Forced : No
Menu
00:00:00.000 : en:Chapter 1
00:07:33.411 : en:Chapter 2
00:12:00.302 : en:Chapter 3
00:12:59.445 : en:Chapter 4
00:15:55.370 : en:Chapter 5
00:20:56.922 : en:Chapter 6
00:23:15.434 : en:Chapter 7
00:25:52.675 : en:Chapter 8
00:29:59.255 : en:Chapter 9
00:38:14.041 : en:Chapter 10
00:46:43.842 : en:Chapter 11
00:49:46.315 : en:Chapter 12
00:53:19.528 : en:Chapter 13
00:55:10.222 : en:Chapter 14
00:58:07.858 : en:Chapter 15
01:08:42.326 : en:Chapter 16
01:12:22.337 : en:Chapter 17
01:15:45.707 : en:Chapter 18
01:19:10.162 : en:Chapter 19
01:22:46.836 : en:Chapter 20
01:25:09.686 : en:Chapter 21
01:28:07.738 : en:Chapter 22
01:31:15.552 : en:Chapter 23
01:36:02.756 : en:Chapter 24
01:37:35.890 : en:Chapter 25
01:40:35.404 : en:Chapter 26
01:45:16.518 : en:Chapter 27

x264 log

VIDEO ENCODING
x264 [info]: frame I:986 Avg QP:15.87 size: 69715 PSNR Mean Y:47.97 U:50.98 V:51.86 Avg:48.78 Global:48.08
x264 [info]: frame P:31675 Avg QP:17.15 size: 37336 PSNR Mean Y:46.49 U:50.00 V:50.84 Avg:47.38 Global:46.70
x264 [info]: frame B:133871 Avg QP:19.07 size: 18954 PSNR Mean Y:45.25 U:49.14 V:50.35 Avg:46.20 Global:45.50
x264 [info]: consecutive B-frames: 1.6% 1.7% 4.9% 11.1% 13.7% 46.7% 6.2% 2.1% 2.2% 1.7% 1.9% 2.7% 1.2% 0.8% 0.6% 0.3% 0.4%
x264 [total]: encoded 166532 frames, 6.02 fps, 4363.78 kb/s, duration 7:40:40.96

Скриншот c названием фильма

Скриншоты

Убедительная просьба пожалуйста кто скачал не бросайте раздачу!!!
[dis-tracker.ru].t10160.torrent 
 GOLD TORRENT! DOWNLOAD TRAFFIC DOES NOT CONSIDER! 
Torrent: Registered [ 2015-09-21 21:01 ] · 2BBB1E8CB2057E02B5B9B10A73456F794F038587

Download .torrent

Download

11 KB

Status: checked
Completed: 0 times
Size: 4.36 GB
terms.php
Похожие темы
[Profile] [PM]
Display posts:    
Reply to topic

Current time is: 22-Oct 20:49

All times are UTC ± 0



You cannot post new topics in this forum
You cannot reply to topics in this forum
You cannot edit your posts in this forum
You cannot delete your posts in this forum
You cannot vote in polls in this forum
You cannot attach files in this forum
You can download files in this forum