Мадагаскар: Коллекция / Madagascar: Сollection (Эрик Дарнелл, Том МакГрат, Конрад Верно) [2005-2014, мультфильм, комедия, приключения, семейный, BDRip-AVC | 60 fps] Дубляж

Reply to topic
DL-List and Torrent activity
Size:  15.43 GB   |    Registered:  5 years 1 month   |    Completed:  2 times
Seeders:  26  [  0 KB/s  ]   Leechers:  4  [  0 KB/s  ]   Show peers in full details
 
   
 
 
Author Message

adeei ®

Gender: Male

Longevity: 5 years 2 months

Posts: 150



Награды: None

Post 19-Sep-2015 12:41

[Quote]

Мадагаскар: Коллекция / Madagascar: Сollection Год выхода: 2005-2014
Жанр: Мультфильм, комедия, приключения, семейный
Страна: США
Студия: DreamWorks Animation, DreamWorks SKG, Pacific Data Images (PDI)
Субтитры: Русские, Английские
Продолжительность: 01:25:54 / 01:29:24 / 01:33:24 / 01:31:49
Перевод: Дубляж-Режиссер: Эрик Дарнелл, Том МакГрат, Конрад Верно-В ролях: Бен Стиллер, Крис Рок, Дэвид Швиммер, Джада Пинкетт Смит, Саша Барон Коэн, Седрик «Развлекатель», Энди Рихтер, Кристофер Найтс, Крис Миллер-Описание: Четверо изнеженных животных из Центрального зоопарка в Нью-Йорке — лев Алекс, зебра Марти, жираф Мелман и гиппопотамиха Глория — решаются на побег. Оказавшись после кораблекрушения на экзотическом острове Мадагаскар, населенном лемурами и поедающими их фоссами, путешественники с ужасом понимают, что с городскими привычками им придется распрощаться. Здесь нет людей, любимых клеток, вкусной кормежки. Начинается шоу «Последний герой» только с животными — нашим друзьям нужно выжить в непривычной среде обитания, где на каждом шагу подстерегает опасность… --Качество: BDRip-AVC / 60 fps
Формат: MKV
Видео кодек: AVC
Аудио кодек; AC3
Видео: MPEG-4 AVC, 5500 Кбит/с, 1024x576, 59,940 кадр/с
Аудио: Русский (AC3, 6 ch, 448 Кбит/с) / Дублированный--

Мадагаскар / Madagascar

Мадагаскар / Madagascar «Они не были рождены в дикой местности... Их перевезли туда...» Название: Мадагаскар
Оригинальное название: Madagascar
Год выпуска: 2005
Страна: США
Жанр: мультфильм, комедия, приключения, семейный
Продолжительность: 01:25:54
Перевод: Дубляж
Субтитры: Русские, Английские-Режиссер: Эрик Дарнелл / Eric Darnell, Том МакГрат / Tom McGrath-В ролях: Бен Стиллер (Alex, озвучка), Крис Рок (Marty, озвучка), Дэвид Швиммер (Melman, озвучка), Джада Пинкетт Смит (Gloria, озвучка), Саша Барон Коэн (Julien, озвучка), Седрик «Развлекатель» (Maurice, озвучка), Энди Рихтер (Mort, озвучка), Том МакГрат (Skipper / Fossa / Panicky Man on Subway, озвучка), Кристофер Найтс (Private, озвучка), Крис Миллер (Kowalski, озвучка), Конрад Вернон (Mason, озвучка), Эрик Дарнелл (Lemur #1 / Fossa / Subway Car Announcer, озвучка)-Описание: Четверо изнеженных животных из Центрального зоопарка в Нью-Йорке - лев Алекс, зебра Марти, жираф Мелман и гиппопотамиха Глория - решаются на побег. Оказавшись после кораблекрушения на экзотическом острове Мадагаскар, населенном лемурами и поедающими их фоссами, путешественники с ужасом понимают, что с городскими привычками им придется распрощаться.
Здесь нет людей, любимых клеток, вкусной кормежки. Начинается шоу «Последний герой» только с животными - нашим друзьям нужно выжить в непривычной среде обитания, где на каждом шагу подстерегает опасность...
-Рейтинг
[imdb]http://www.imdb.com/title/tt0351283/[/imdb] [kp]http://www.kinopoisk.ru/film/6006/[/kp]
MPAA: PG - Рекомендуется присутствие родителей-Качество: BDRip-AVC / 60 fps
Формат: MKV
Видео кодек: AVC
Аудио кодек; AC3
Видео: AVC, 1024x576 (16:9), 5806 kbps, 59,940 fps, 0,164 bpp
Аудио: Русский / AC3 / 5.1 / 48 kHz / 640 kbps / 16 bit
Навигация по главам: есть- -

Медио инфо

Общее
Уникальный идентификатор : 177603158478959265205485986955854441766 (0x859D1FC5E299F9D4875C23590AE16D26)
Полное имя : D:\ftp\мадагаскар 1-4\Мадагаскар 60fps.mkv
Формат : Matroska
Версия формата : Version 4 / Version 2
Размер файла : 3,87 Гбайт
Продолжительность : 1 ч. 25 м.
Общий поток : 6447 Кбит/сек
Дата кодирования : UTC 2015-09-16 15:21:30
Программа кодирования : mkvmerge v7.0.0 ('Where We Going') 64bit built on Jun 9 2014 15:16:27
Библиотека кодирования : libebml v1.3.0 + libmatroska v1.4.1
Видео
Идентификатор : 1
Формат : AVC
Формат/Информация : Advanced Video Codec
Профиль формата : High@L4.1
Параметр CABAC формата : Да
Параметр ReFrames формата : 5 кадров
Идентификатор кодека : V_MPEG4/ISO/AVC
Продолжительность : 1 ч. 25 м.
Битрейт : 5806 Кбит/сек
Ширина : 1024 пикселя
Высота : 576 пикселей
Соотношение сторон : 16:9
Режим частоты кадров : Постоянный
Частота кадров : 59,880 кадров/сек
Частота кадров в оригинале : 59,940 кадров/сек
Цветовое пространство : YUV
Субдискретизация насыщенности : 4:2:0
Битовая глубина : 8 бит
Тип развёртки : Прогрессивная
Бит/(Пиксели*Кадры) : 0.164
Размер потока : 3,41 Гбайт (88%)
Библиотека кодирования : x264 core 146 r2538 121396c
Настройки программы : cabac=1 / ref=5 / deblock=1:0:0 / analyse=0x3:0x113 / me=umh / subme=11 / psy=1 / psy_rd=1.00:0.00 / mixed_ref=1 / me_range=24 / chroma_me=1 / trellis=2 / 8x8dct=1 / cqm=0 / deadzone=21,11 / fast_pskip=1 / chroma_qp_offset=-2 / threads=12 / lookahead_threads=3 / sliced_threads=0 / nr=0 / decimate=1 / interlaced=0 / bluray_compat=0 / constrained_intra=0 / bframes=16 / b_pyramid=2 / b_adapt=2 / b_bias=0 / direct=1 / weightb=1 / open_gop=0 / weightp=2 / keyint=250 / keyint_min=25 / scenecut=40 / intra_refresh=0 / rc=2pass / mbtree=0 / bitrate=5806 / ratetol=1.0 / qcomp=0.60 / qpmin=0 / qpmax=69 / qpstep=4 / cplxblur=20.0 / qblur=0.5 / ip_ratio=1.40 / pb_ratio=1.30 / aq=1:1.00
Язык : English
Default : Да
Forced : Нет
Аудио
Идентификатор : 2
Формат : AC-3
Формат/Информация : Audio Coding 3
Расширение режима : CM (complete main)
Параметр Endianness формата : Big
Идентификатор кодека : A_AC3
Продолжительность : 1 ч. 25 м.
Вид битрейта : Постоянный
Битрейт : 640 Кбит/сек
Каналы : 6 каналов
Расположение каналов : Front: L C R, Side: L R, LFE
Частота : 48,0 КГц
Битовая глубина : 16 бит
Метод сжатия : С потерями
Размер потока : 393 Мбайт (10%)
Заголовок : Дубляж
Язык : Russian
Default : Да
Forced : Нет
Текст #1
Идентификатор : 3
Формат : UTF-8
Идентификатор кодека : S_TEXT/UTF8
Идентификатор кодека/Информация : UTF-8 Plain Text
Default : Да
Forced : Нет
Текст #2
Идентификатор : 4
Формат : UTF-8
Идентификатор кодека : S_TEXT/UTF8
Идентификатор кодека/Информация : UTF-8 Plain Text
Default : Нет
Forced : Нет
Текст #3
Идентификатор : 5
Формат : UTF-8
Идентификатор кодека : S_TEXT/UTF8
Идентификатор кодека/Информация : UTF-8 Plain Text
Default : Нет
Forced : Нет
Текст #4
Идентификатор : 6
Формат : UTF-8
Идентификатор кодека : S_TEXT/UTF8
Идентификатор кодека/Информация : UTF-8 Plain Text
Default : Нет
Forced : Нет
Меню
00:00:00.000 : en:Opening Credits
00:05:34.167 : en:The Penguins
00:08:35.473 : en:Marty's Birthday
00:12:40.092 : en:The Talk of the Wild
00:17:56.867 : en:Marty in New York
00:22:32.684 : en:Grand Central Station
00:26:56.615 : en:The Boat to Kenya
00:30:57.856 : en:Madagascar
00:35:30.878 : en:Checking Into the Zoo
00:40:06.570 : en:The Locals
00:44:34.797 : en:Last Will
00:48:52.346 : en:The King
00:52:18.844 : en:Marty's Beach House
00:57:15.557 : en:Kidnapped
01:02:16.733 : en:Alec Begins to Lose It
01:06:56.554 : en:The Wild
01:12:37.102 : en:The Foosa
01:16:20.117 : en:A Snack for Alec
01:18:18.652 : en:The Boat Back
01:19:10.036 : en:End Credits

Скриншоты

-

Мадагаскар 2 / Madagascar: Escape 2 Africa

Мадагаскар 2 / Madagascar: Escape 2 Africa «Осторожно, звери возвращаются!» Название: Мадагаскар 2
Оригинальное название: Madagascar: Escape 2 Africa
Год выпуска: 2008
Страна: США
Жанр: мультфильм, комедия, приключения, семейный
Продолжительность: 01:29:24
Перевод: Дубляж
Субтитры: русские (Rus), английские (Eng), украинские (Ukr)-Режиссер: Эрик Дарнелл / Eric Darnell, Том МакГрат / Tom McGrath-В ролях: Бен Стиллер (Alex, озвучка), Крис Рок (Marty / Additional Zebras, озвучка), Дэвид Швиммер (Melman, озвучка), Джада Пинкетт Смит (Gloria, озвучка), Саша Барон Коэн (Julien, озвучка), Седрик «Развлекатель» (Maurice, озвучка), Энди Рихтер (Mort, озвучка), Берни Мак (Zuba, озвучка), Алек Болдуин (Makunga, озвучка), Шерри Шеперд (Mom, озвучка), Уилл Ай Эм (Moto Moto, озвучка), Элиза Габриелли (Nana, озвучка)-Описание: Полная опасностей жизнь на Мадагаскаре не оправдала ожиданий привыкших к комфорту Нью-Йоркского зоопарка животных - льва Алекса, зебры Марти, жирафа Мелмана и бегемотихи Глории - и друзья решают сбежать с острова. По случайности, всю компанию заносит в Африку, где Алекс встречает свою семью, с которой он был разлучен в детстве. Неожиданно для себя Алекс понимает, что после жизни в зоопарке у него гораздо меньше общего с родственниками, чем ему хотелось бы...-Рейтинг
[imdb]http://www.imdb.com/title/tt0479952/[/imdb] [kp]http://www.kinopoisk.ru/film/161066/[/kp]
MPAA: PG - Рекомендуется присутствие родителей-Качество: BDRip-AVC / 60 fps
Формат: MKV
Видео кодек: AVC
Аудио кодек: AC3
Видео: AVC, 1024x576 (16:9), 5594 kbps, 59,940 fps, 0,158 bpp
Аудио: Русский / AC3 / 5.1 / 48 kHz / 448 kbps / 16 bit
Навигация по главам: есть- -

Медио инфо

General
Unique ID : 239681059296172540112696519138931364805 (0xB450E496694E8CC7A4527D0D7083D3C5)
Complete name : E:КодировкаРаздачамадагаскар 1-4Мадагаскар 2 - Африка 60fps.mkv
Format : Matroska
Format version : Version 4 / Version 2
File size : 3.78 GiB
Duration : 1h 29mn
Overall bit rate : 6 048 Kbps
Encoded date : UTC 2015-09-17 14:07:16
Writing application : mkvmerge v7.0.0 ('Where We Going') 64bit built on Jun 9 2014 15:16:27
Writing library : libebml v1.3.0 + libmatroska v1.4.1
Video
ID : 1
Format : AVC
Format/Info : Advanced Video Codec
Format profile : High@L4.1
Format settings, CABAC : Yes
Format settings, ReFrames : 4 frames
Codec ID : V_MPEG4/ISO/AVC
Duration : 1h 29mn
Bit rate : 5 594 Kbps
Width : 1 024 pixels
Height : 576 pixels
Display aspect ratio : 16:9
Frame rate : 59.940 fps
Color space : YUV
Chroma subsampling : 4:2:0
Bit depth : 8 bits
Scan type : Progressive
Bits/(Pixel*Frame) : 0.158
Stream size : 3.42 GiB (91%)
Writing library : x264 core 146 r2538 121396c
Encoding settings : cabac=1 / ref=3 / deblock=1:0:0 / analyse=0x3:0x113 / me=umh / subme=11 / psy=1 / psy_rd=1.00:0.00 / mixed_ref=1 / me_range=24 / chroma_me=1 / trellis=2 / 8x8dct=1 / cqm=0 / deadzone=21,11 / fast_pskip=1 / chroma_qp_offset=-2 / threads=12 / lookahead_threads=3 / sliced_threads=0 / nr=0 / decimate=1 / interlaced=0 / bluray_compat=0 / constrained_intra=0 / bframes=16 / b_pyramid=2 / b_adapt=2 / b_bias=0 / direct=1 / weightb=1 / open_gop=0 / weightp=2 / keyint=250 / keyint_min=25 / scenecut=40 / intra_refresh=0 / rc=2pass / mbtree=0 / bitrate=5594 / ratetol=1.0 / qcomp=0.60 / qpmin=0 / qpmax=69 / qpstep=4 / cplxblur=20.0 / qblur=0.5 / ip_ratio=1.40 / pb_ratio=1.30 / aq=1:1.00
Language : English
Default : Yes
Forced : No
Audio
ID : 2
Format : AC-3
Format/Info : Audio Coding 3
Mode extension : CM (complete main)
Codec ID : A_AC3
Duration : 1h 29mn
Bit rate mode : Constant
Bit rate : 448 Kbps
Channel(s) : 6 channels
Channel positions : Front: L C R, Side: L R, LFE
Sampling rate : 48.0 KHz
Bit depth : 16 bits
Compression mode : Lossy
Stream size : 286 MiB (7%)
Title : Дубляж
Language : Russian
Default : Yes
Forced : No
Text #1
ID : 3
Format : UTF-8
Codec ID : S_TEXT/UTF8
Codec ID/Info : UTF-8 Plain Text
Title : Rus
Language : Russian
Default : Yes
Forced : No
Text #2
ID : 4
Format : UTF-8
Codec ID : S_TEXT/UTF8
Codec ID/Info : UTF-8 Plain Text
Title : Eng
Language : English
Default : No
Forced : No
Text #3
ID : 5
Format : UTF-8
Codec ID : S_TEXT/UTF8
Codec ID/Info : UTF-8 Plain Text
Title : Ukr
Language : Ukrainian
Default : No
Forced : No
Menu
00:00:00.000 : en:Chapter 1
00:05:00.000 : en:Chapter 2
00:10:00.000 : en:Chapter 3
00:15:00.000 : en:Chapter 4
00:20:00.000 : en:Chapter 5
00:25:00.000 : en:Chapter 6
00:30:00.000 : en:Chapter 7
00:35:00.000 : en:Chapter 8
00:40:00.000 : en:Chapter 9
00:45:00.000 : en:Chapter 10
00:50:00.000 : en:Chapter 11
00:55:00.000 : en:Chapter 12
01:00:00.000 : en:Chapter 13
01:05:00.000 : en:Chapter 14
01:10:00.000 : en:Chapter 15
01:15:00.000 : en:Chapter 16
01:20:00.000 : en:Chapter 17
01:25:00.000 : en:Chapter 18

Скриншоты

-

Мадагаскар 3 / Madagascar 3: Europe's Most Wanted

Мадагаскар 3 / Madagascar 3: Europe's Most Wanted Название: Мадагаскар 3
Оригинальное название: Madagascar 3: Europe's Most Wanted
Год выпуска: 2012
Страна: США
Жанр: мультфильм, комедия, приключения, семейный
Продолжительность: 01:33:24
Перевод: Дубляж
Субтитры: Русские (Rus), английские (Eng), украинские (Ukr)-Режиссер: Эрик Дарнелл / Eric Darnell, Том МакГрат / Tom McGrath, Конрад Вернон / Conrad Vernon-В ролях: Бен Стиллер (Alex, озвучка), Крис Рок (Marty, озвучка), Дэвид Швиммер (Melman, озвучка), Джада Пинкетт Смит (Gloria, озвучка), Саша Барон Коэн (Julien, озвучка), Седрик «Развлекатель» (Maurice, озвучка), Энди Рихтер (Mort, озвучка), Том МакГрат (Skipper / First Policeman, озвучка), Фрэнсис МакДорманд (Captain Chantel DuBois, озвучка), Джессика Честейн (Gia, озвучка), Брайан Крэнстон (Vitaly, озвучка), Мартин Шорт (Stefano, озвучка)-Описание: Лев Алекс, зебра Марти, гиппопотамиха Глория и жираф Мелман, а также король Джулиан, Морис, Морт и Пингвины все еще пытаются вернуться в Нью-Йорк. На этот раз их путь пройдет через Европу, где они откроют свой цирк.-Рейтинг
[imdb]http://www.imdb.com/title/tt1277953/[/imdb] [kp]http://www.kinopoisk.ru/film/422792[/kp]
MPAA: PG - Рекомендуется присутствие родителей-Качество: BDRip-AVC / 60 fps
Формат: MKV
Видео кодек: AVC
Аудио кодек: AC3
Видео: AVC, 1024x576 (16:9), 5474 kbps, 59,940 fps, 0,155 bpp
Аудио: Русский / AC3 / 5.1 / 48 kHz / 448 kbps / 16 bit
Навигация по главам: есть- -

Медио инфо

General
Unique ID : 247618462225393443909218926171587853584 (0xBA4994C42B3FB17BAC6D232A9F7BBD10)
Complete name : E:КодировкаРаздачамадагаскар 1-4Мадагасказ 3 - Europe's Most Wanted 60fps.mkv
Format : Matroska
Format version : Version 4 / Version 2
File size : 3.87 GiB
Duration : 1h 33mn
Overall bit rate : 5 932 Kbps
Encoded date : UTC 2015-09-17 14:15:04
Writing application : mkvmerge v7.0.0 ('Where We Going') 64bit built on Jun 9 2014 15:16:27
Writing library : libebml v1.3.0 + libmatroska v1.4.1
Video
ID : 1
Format : AVC
Format/Info : Advanced Video Codec
Format profile : High@L4.1
Format settings, CABAC : Yes
Format settings, ReFrames : 4 frames
Codec ID : V_MPEG4/ISO/AVC
Duration : 1h 33mn
Bit rate : 5 474 Kbps
Width : 1 024 pixels
Height : 576 pixels
Display aspect ratio : 16:9
Frame rate : 59.940 fps
Color space : YUV
Chroma subsampling : 4:2:0
Bit depth : 8 bits
Scan type : Progressive
Bits/(Pixel*Frame) : 0.155
Stream size : 3.50 GiB (90%)
Writing library : x264 core 146 r2538 121396c
Encoding settings : cabac=1 / ref=3 / deblock=1:0:0 / analyse=0x3:0x113 / me=umh / subme=11 / psy=1 / psy_rd=1.00:0.00 / mixed_ref=1 / me_range=24 / chroma_me=1 / trellis=2 / 8x8dct=1 / cqm=0 / deadzone=21,11 / fast_pskip=1 / chroma_qp_offset=-2 / threads=12 / lookahead_threads=3 / sliced_threads=0 / nr=0 / decimate=1 / interlaced=0 / bluray_compat=0 / constrained_intra=0 / bframes=16 / b_pyramid=2 / b_adapt=2 / b_bias=0 / direct=1 / weightb=1 / open_gop=0 / weightp=2 / keyint=250 / keyint_min=25 / scenecut=40 / intra_refresh=0 / rc=2pass / mbtree=0 / bitrate=5474 / ratetol=1.0 / qcomp=0.60 / qpmin=0 / qpmax=69 / qpstep=4 / cplxblur=20.0 / qblur=0.5 / ip_ratio=1.40 / pb_ratio=1.30 / aq=1:1.00
Language : English
Default : Yes
Forced : No
Audio
ID : 2
Format : AC-3
Format/Info : Audio Coding 3
Mode extension : CM (complete main)
Codec ID : A_AC3
Duration : 1h 33mn
Bit rate mode : Constant
Bit rate : 448 Kbps
Channel(s) : 6 channels
Channel positions : Front: L C R, Side: L R, LFE
Sampling rate : 48.0 KHz
Bit depth : 16 bits
Compression mode : Lossy
Stream size : 299 MiB (8%)
Title : Дубляж
Language : Russian
Default : Yes
Forced : No
Text #1
ID : 3
Format : UTF-8
Codec ID : S_TEXT/UTF8
Codec ID/Info : UTF-8 Plain Text
Title : Rus
Language : Russian
Default : Yes
Forced : No
Text #2
ID : 4
Format : UTF-8
Codec ID : S_TEXT/UTF8
Codec ID/Info : UTF-8 Plain Text
Title : Rus
Language : Russian
Default : No
Forced : No
Text #3
ID : 5
Format : UTF-8
Codec ID : S_TEXT/UTF8
Codec ID/Info : UTF-8 Plain Text
Title : Eng
Language : English
Default : No
Forced : No
Text #4
ID : 6
Format : UTF-8
Codec ID : S_TEXT/UTF8
Codec ID/Info : UTF-8 Plain Text
Title : Eng
Language : English
Default : No
Forced : No
Text #5
ID : 7
Format : UTF-8
Codec ID : S_TEXT/UTF8
Codec ID/Info : UTF-8 Plain Text
Title : Eng
Language : English
Default : No
Forced : No
Text #6
ID : 8
Format : UTF-8
Codec ID : S_TEXT/UTF8
Codec ID/Info : UTF-8 Plain Text
Title : Eng
Language : English
Default : No
Forced : No
Text #7
ID : 9
Format : UTF-8
Codec ID : S_TEXT/UTF8
Codec ID/Info : UTF-8 Plain Text
Title : Ukr
Language : Ukrainian
Default : No
Forced : No
Text #8
ID : 10
Format : UTF-8
Codec ID : S_TEXT/UTF8
Codec ID/Info : UTF-8 Plain Text
Title : Ukr
Language : Ukrainian
Default : No
Forced : No
Menu
00:00:00.000 : en:Chapter 1
00:05:16.316 : en:Chapter 2
00:10:51.985 : en:Chapter 3
00:19:46.310 : en:Chapter 4
00:27:49.835 : en:Chapter 5
00:32:50.552 : en:Chapter 6
00:40:34.974 : en:Chapter 7
00:46:51.976 : en:Chapter 8
00:52:00.534 : en:Chapter 9
00:58:55.157 : en:Chapter 10
01:00:23.411 : en:Chapter 11
01:04:19.314 : en:Chapter 12
01:10:59.672 : en:Chapter 13
01:15:30.317 : en:Chapter 14
01:21:09.782 : en:Chapter 15
01:22:48.630 : en:Chapter 16

Скриншоты

-

Пингвины Мадагаскара / Penguins of Madagascar

Пингвины Мадагаскара / Penguins of Madagascar «В этот раз они не останутся в тени» -Название: Пингвины Мадагаскара
Оригинальное название: Penguins of Madagascar
Год выпуска: 2014
Страна: США
Жанр: мультфильм, комедия, приключения, семейный
Продолжительность: 01:31:49
Перевод: Дубляж
Субтитры: Русские, Украинские-Режиссер: Эрик Дарнелл / Eric Darnell, Саймон Дж. Смит / Simon J. Smith-В ролях: Том МакГрат (Skipper, озвучка), Крис Миллер (Kowalski, озвучка), Кристофер Найтс (Private, озвучка), Конрад Вернон (Rico, озвучка), Джон Малкович (Dave, озвучка), Бенедикт Камбербэтч (Classified, озвучка), Кен Жонг (Short Fuse, озвучка), Аннет Махендру (Eva, озвучка), Петер Стормаре (Corporal, озвучка), Энди Рихтер (Mort, озвучка), Дэнни Джейкобс (King Julien), Шон Чэрмэтц (Cricket, озвучка)-Описание: Четвёрка пингвинов-шпионов - Шкипер, Ковальски, Рико и Прапор - объединяется с командой «Северный ветер», помогающей беззащитным животным. Им предстоит остановить злобного осьминога, доктора Октавиуса Брайна, желающего уничтожить этот мир...-Рейтинг
[imdb]http://www.imdb.com/title/tt1911658/[/imdb] [kp]http://www.kinopoisk.ru/film/607608/[/kp]
MPAA: PG - Рекомендуется присутствие родителей-Качество: BDRip-AVC / 60 fps
Формат: MKV
Видео кодек: AVC
Аудио кодек: AC3
Видео: AVC, 1024x552 (1.852), 5462 kbps, 59,940 fps, 0,161 bpp
Аудио: Русский / AC3 / 5.1 / 48 kHz / 640 kbps / 16 bit
Навигация по главам: есть- -

Медио инфо

General
Unique ID : 191819673191891028851647967325902812795 (0x904F2010889E00A6A3C6B2F40C6B367B)
Complete name : E:КодировкаРаздачамадагаскар 1-4Пингвины мадагаскара 60fps.mkv
Format : Matroska
Format version : Version 4 / Version 2
File size : 3.92 GiB
Duration : 1h 31mn
Overall bit rate : 6 108 Kbps
Encoded date : UTC 2015-09-15 02:43:07
Writing application : mkvmerge v7.0.0 ('Where We Going') 64bit built on Jun 9 2014 15:16:27
Writing library : libebml v1.3.0 + libmatroska v1.4.1
Video
ID : 1
Format : AVC
Format/Info : Advanced Video Codec
Format profile : High@L4.1
Format settings, CABAC : Yes
Format settings, ReFrames : 4 frames
Codec ID : V_MPEG4/ISO/AVC
Duration : 1h 31mn
Bit rate : 5 462 Kbps
Width : 1 024 pixels
Height : 552 pixels
Display aspect ratio : 1.852
Original display aspect ratio : 1.850
Frame rate : 59.940 fps
Color space : YUV
Chroma subsampling : 4:2:0
Bit depth : 8 bits
Scan type : Progressive
Bits/(Pixel*Frame) : 0.161
Stream size : 3.43 GiB (88%)
Writing library : x264 core 146 r2538 121396c
Encoding settings : cabac=1 / ref=3 / deblock=1:0:0 / analyse=0x3:0x113 / me=umh / subme=11 / psy=1 / psy_rd=1.00:0.00 / mixed_ref=1 / me_range=24 / chroma_me=1 / trellis=2 / 8x8dct=1 / cqm=0 / deadzone=21,11 / fast_pskip=1 / chroma_qp_offset=-2 / threads=12 / lookahead_threads=3 / sliced_threads=0 / nr=0 / decimate=1 / interlaced=0 / bluray_compat=0 / constrained_intra=0 / bframes=16 / b_pyramid=2 / b_adapt=2 / b_bias=0 / direct=1 / weightb=1 / open_gop=0 / weightp=2 / keyint=250 / keyint_min=25 / scenecut=40 / intra_refresh=0 / rc=2pass / mbtree=0 / bitrate=5462 / ratetol=1.0 / qcomp=0.60 / qpmin=0 / qpmax=69 / qpstep=4 / cplxblur=20.0 / qblur=0.5 / ip_ratio=1.40 / pb_ratio=1.30 / aq=1:1.00
Language : English
Default : Yes
Forced : No
Audio
ID : 2
Format : AC-3
Format/Info : Audio Coding 3
Mode extension : CM (complete main)
Codec ID : A_AC3
Duration : 1h 31mn
Bit rate mode : Constant
Bit rate : 640 Kbps
Channel(s) : 6 channels
Channel positions : Front: L C R, Side: L R, LFE
Sampling rate : 48.0 KHz
Bit depth : 16 bits
Compression mode : Lossy
Stream size : 420 MiB (10%)
Title : Дубляж
Language : Russian
Default : Yes
Forced : No
Text #1
ID : 3
Format : UTF-8
Codec ID : S_TEXT/UTF8
Codec ID/Info : UTF-8 Plain Text
Default : Yes
Forced : No
Text #2
ID : 4
Format : UTF-8
Codec ID : S_TEXT/UTF8
Codec ID/Info : UTF-8 Plain Text
Default : No
Forced : No
Text #3
ID : 5
Format : UTF-8
Codec ID : S_TEXT/UTF8
Codec ID/Info : UTF-8 Plain Text
Default : No
Forced : No
Text #4
ID : 6
Format : UTF-8
Codec ID : S_TEXT/UTF8
Codec ID/Info : UTF-8 Plain Text
Default : No
Forced : No
Menu
00:00:00.000 : en:Chapter 1
00:03:38.718 : en:Chapter 2
00:07:27.738 : en:Chapter 3
00:09:24.272 : en:Chapter 4
00:12:10.521 : en:Chapter 5
00:16:09.301 : en:Chapter 6
00:19:22.452 : en:Chapter 7
00:23:05.509 : en:Chapter 8
00:26:58.658 : en:Chapter 9
00:29:01.322 : en:Chapter 10
00:30:36.417 : en:Chapter 11
00:34:01.205 : en:Chapter 12
00:38:05.992 : en:Chapter 13
00:41:31.197 : en:Chapter 14
00:44:25.162 : en:Chapter 15
00:46:39.880 : en:Chapter 16
00:49:12.950 : en:Chapter 17
00:54:31.559 : en:Chapter 18
00:56:01.066 : en:Chapter 19
01:00:04.017 : en:Chapter 20
01:03:07.241 : en:Chapter 21
01:06:41.998 : en:Chapter 22
01:09:52.271 : en:Chapter 23
01:12:10.409 : en:Chapter 24
01:14:19.913 : en:Chapter 25
01:15:59.012 : en:Chapter 26
01:18:28.161 : en:Chapter 27
01:20:49.636 : en:Chapter 28

Скриншоты

]
-
[dis-tracker.ru].t10132.torrent 
 GOLD TORRENT! DOWNLOAD TRAFFIC DOES NOT CONSIDER! 
Torrent: Registered [ 2015-09-19 12:41 ] · 44F84536B955037C37723247D75D3C7B4E92E6DF

Download .torrent

Download

40 KB

Status: checked
Completed: 2 times
Size: 15.43 GB
terms.php
Похожие темы
[Profile] [PM]
Display posts:    
Reply to topic

Current time is: 21-Oct 04:14

All times are UTC ± 0



You cannot post new topics in this forum
You cannot reply to topics in this forum
You cannot edit your posts in this forum
You cannot delete your posts in this forum
You cannot vote in polls in this forum
You cannot attach files in this forum
You can download files in this forum