Правдивая история / True Story (2015) BDRip 720p | L

Reply to topic
 
Author Message

Dream ®

Gender: Male

Longevity: 3 years 4 months

Posts: 2164



Награды: None

Post 19-Sep-2015 08:19

[Quote]

Информация о фильме
Название: Правдивая история
Оригинальное название: True Story
Год выхода: 2015
Жанр: триллер, драма, детектив
Режиссер: Руперт Гулд
В ролях: Джона Хилл, Джеймс Франко, Фелисити Джонс, Мария Диззия, Итан Сапли, Конор Кикот, Шарлотта Дрисколл, Стелла Рэй Пэйн, Роберт Джон Бёрк, Байрон Дженнингс
О фильме: История взаимоотношений журналиста Майкла Финкеля и убийцы, разыскиваемого ФБР, по имени Кристиан Лонго, который много лет скрывался за пределами США под именем Финкеля.
[imdb]http://www.imdb.com/title/tt2273657[/imdb] [kp]http://www.kinopoisk.ru/film/669618[/kp]

Выпущено: Италия, Франция, Великобритания / 20th Century Fox, Regency Enterprises, New Regency Pictures, Plan B Entertainment
Продолжительность: 01:39:25
Озвучивание: Любительский (двухголосый) [Петр Гланц & Paradox & Omskbird records]
Файл
Формат: MKV (x264)
Качество: BDRip 720p
Видео: MPEG-4 AVC, 10800 Кбит/с, 1280x692
Аудио: Русский (AC3, 6 ch, 640 Кбит/с), (DTS, 6 ch, 1510 Кбит/с), английский (DTS, 6 ch, 1510 Кбит/с), (AAC, 2 ch, 64 Кбит/с)
Субтитры: English
Размер: 10.25 ГБ

Media Info

Общее
Уникальный идентификатор : 183616987160677430545686265483023298947 (0x8A23586B49D69326BB0412C5F2DB3183)
Полное имя : G:True.Story.2015.720p.BluRay.x264-iNK.mkv
Формат : Matroska
Версия формата : Version 2
Размер файла : 10,2 Гбайт
Продолжительность : 1 ч. 39 м.
Общий поток : 14,8 Мбит/сек
Название фильма : True.Story.2015.REPACK.1080p.BluRay.DTS.x264-VietHD
Дата кодирования : UTC 2015-09-18 12:46:32
Программа кодирования : mkvmerge v7.9.0 ('Birds') 64bit
Библиотека кодирования : libebml v1.3.1 + libmatroska v1.4.2
Видео
Идентификатор : 1
Формат : AVC
Формат/Информация : Advanced Video Codec
Профиль формата : High@L4.1
Параметр CABAC формата : Да
Параметр ReFrames формата : 9 кадров
Идентификатор кодека : V_MPEG4/ISO/AVC
Продолжительность : 1 ч. 39 м.
Ширина : 1280 пикселей
Высота : 692 пикселя
Соотношение сторон : 1,85:1
Режим частоты кадров : Постоянный
Частота кадров : 23,976 кадра/сек
Цветовое пространство : YUV
Субдискретизация насыщенности : 4:2:0
Битовая глубина : 8 бит
Тип развёртки : Прогрессивная
Библиотека кодирования : x264 core 142 r2431+42 c69a006 tMod [8-bit@4:2:0 X86_64]
Настройки программы : cabac=1 / ref=9 / deblock=1:-3:-3 / analyse=0x3:0x113 / me=umh / subme=10 / psy=1 / fade_compensate=0.00 / psy_rd=1.00:0.00 / mixed_ref=1 / me_range=32 / chroma_me=1 / trellis=2 / 8x8dct=1 / cqm=0 / deadzone=21,11 / fast_pskip=0 / chroma_qp_offset=-4 / threads=12 / lookahead_threads=3 / sliced_threads=0 / nr=0 / decimate=0 / interlaced=0 / bluray_compat=0 / constrained_intra=0 / fgo=0 / bframes=12 / b_pyramid=2 / b_adapt=2 / b_bias=0 / direct=3 / weightb=1 / open_gop=0 / weightp=2 / keyint=250 / keyint_min=23 / scenecut=40 / intra_refresh=0 / rc_lookahead=60 / rc=crf / mbtree=0 / crf=18.0000 / qcomp=0.75 / qpmin=0:0:0 / qpmax=69:69:69 / qpstep=4 / vbv_maxrate=62500 / vbv_bufsize=78125 / crf_max=0.0 / nal_hrd=none / filler=0 / ip_ratio=1.30 / pb_ratio=1.30 / aq=4:0.75 / aq-sensitivity=10.00 / aq-factor=1.00:1.00:1.00 / aq2=0 / aq3=0
Язык : English
Default : Да
Forced : Нет
Аудио #1
Идентификатор : 2
Формат : DTS
Формат/Информация : Digital Theater Systems
Режим : 16
Параметр Endianness формата : Big
Идентификатор кодека : A_DTS
Продолжительность : 1 ч. 39 м.
Вид битрейта : Постоянный
Битрейт : 1509 Кбит/сек
Каналы : 6 каналов
Расположение каналов : Front: L C R, Side: L R, LFE
Частота : 48,0 КГц
Битовая глубина : 24 бит
Метод сжатия : С потерями
Размер потока : 1,05 Гбайт (10%)
Язык : Russian
Default : Да
Forced : Нет
Аудио #2
Идентификатор : 3
Формат : AC-3
Формат/Информация : Audio Coding 3
Расширение режима : CM (complete main)
Параметр Endianness формата : Big
Идентификатор кодека : A_AC3
Продолжительность : 1 ч. 39 м.
Вид битрейта : Постоянный
Битрейт : 640 Кбит/сек
Каналы : 6 каналов
Расположение каналов : Front: L C R, Side: L R, LFE
Частота : 48,0 КГц
Метод сжатия : С потерями
Размер потока : 455 Мбайт (4%)
Язык : Russian
Default : Нет
Forced : Нет
Аудио #3
Идентификатор : 4
Формат : DTS
Формат/Информация : Digital Theater Systems
Режим : 16
Параметр Endianness формата : Big
Идентификатор кодека : A_DTS
Продолжительность : 1 ч. 39 м.
Вид битрейта : Постоянный
Битрейт : 1510 Кбит/сек
Каналы : 6 каналов
Расположение каналов : Front: L C R, Side: L R, LFE
Частота : 48,0 КГц
Битовая глубина : 24 бит
Метод сжатия : С потерями
Размер потока : 1,05 Гбайт (10%)
Язык : English
Default : Нет
Forced : Нет
Аудио #4
Идентификатор : 5
Формат : AAC
Формат/Информация : Advanced Audio Codec
Профиль формата : LC
Идентификатор кодека : A_AAC
Продолжительность : 1 ч. 39 м.
Каналы : 2 канала
Расположение каналов : Front: L R
Частота : 48,0 КГц
Метод сжатия : С потерями
Задержка видео : 9 мс.
Заголовок : Audio Commentary
Язык : English
Default : Нет
Forced : Нет
Текст #1
Идентификатор : 6
Формат : UTF-8
Идентификатор кодека : S_TEXT/UTF8
Идентификатор кодека/Информация : UTF-8 Plain Text
Язык : English
Default : Да
Forced : Нет
Текст #2
Идентификатор : 7
Формат : UTF-8
Идентификатор кодека : S_TEXT/UTF8
Идентификатор кодека/Информация : UTF-8 Plain Text
Заголовок : SDH
Язык : English
Default : Нет
Forced : Нет
Меню
00:00:00.000 : en:00:00:00.000
00:04:20.552 : en:00:04:20.552
00:06:41.192 : en:00:06:41.192
00:09:06.212 : en:00:09:06.212
00:13:15.920 : en:00:13:15.920
00:16:38.956 : en:00:16:38.956
00:17:58.911 : en:00:17:58.911
00:19:13.194 : en:00:19:13.194
00:25:32.322 : en:00:25:32.322
00:29:11.124 : en:00:29:11.124
00:32:44.129 : en:00:32:44.129
00:36:53.336 : en:00:36:53.336
00:38:08.661 : en:00:38:08.661
00:39:54.225 : en:00:39:54.225
00:44:28.791 : en:00:44:28.791
00:46:45.302 : en:00:46:45.302
00:49:24.962 : en:00:49:24.962
00:50:57.763 : en:00:50:57.763
00:53:13.982 : en:00:53:13.982
00:58:07.192 : en:00:58:07.192
01:00:57.946 : en:01:00:57.946
01:05:11.282 : en:01:05:11.282
01:07:04.979 : en:01:07:04.979
01:16:57.780 : en:01:16:57.780
01:22:06.380 : en:01:22:06.380
01:25:37.758 : en:01:25:37.758
01:30:48.401 : en:01:30:48.401
01:33:55.672 : en:01:33:55.672

Скриншоты

[Profile] [PM]
Display posts:    
Reply to topic

Current time is: 21-Oct 04:06

All times are UTC ± 0



You cannot post new topics in this forum
You cannot reply to topics in this forum
You cannot edit your posts in this forum
You cannot delete your posts in this forum
You cannot vote in polls in this forum
You cannot attach files in this forum
You can download files in this forum