Любовь и милосердие / Love & Mercy (2014) HDRip

Reply to topic
DL-List and Torrent activity
Size:  1.45 GB   |    Registered:  5 years 1 month   |    Completed:  2 times

Seeder not seen: 4 years 8 months

 
   
 
 
 
Author Message

Dream ®

Gender: Male

Longevity: 3 years 4 months

Posts: 2164



Награды: None

Post 18-Sep-2015 09:30

[Quote]


Информация о фильме
Название: Любовь и милосердие
Оригинальное название: Love & Mercy
Год выхода: 2014
Жанр: драма, биография, музыка
Режиссер: Уильям Полад
В ролях: Элизабет Бэнкс, Пол Джаматти, Джон Кьюсак, Пол Дано, Кенни Вормолд, Джейк Эйбел, Джоэнна Гоуинг, Бретт Даверн, Грэхэм Роджерс, Брайан Уилсон
О фильме:
История затворнического автора песен Beach Boys и музыканта Брайана Уилсона, от его успехов с чрезвычайно влиятельными оркестровыми популярными альбомами к его нервному срыву и последующему столкновению с врачом, доктором Юджином Лэнди.
[imdb]http://www.imdb.com/title/tt0903657[/imdb]
Страна: США
Студия: Battle Mountain Films
Продолжительность: 02:01:34
Перевод: Дублированный
Файл
Кодек: AVI (XviD)
Качество: HDRip (Исх. BDRip 720p)
Видео: 720x400 (1.80:1), 23.976 fps, XviD build 73 ~1512 kbps avg, 0.22 bit/pixel
Звук: 48 kHz, AC3 Dolby Digital, 2/0 (L,R) ch, ~192 kbps
Субтитры: нет
Семпл

MediaInfo

Общее
Полное имя : S:ФильмыЛюбовь и милосердие. 2014. HDRip (AleksSin).avi
Формат : AVI
Формат/Информация : Audio Video Interleave
Размер файла : 1,45 Гбайт
Продолжительность : 2 ч. 1 м.
Общий поток : 1713 Кбит/сек
Программа кодирования : VirtualDubMod 1.5.10.3 | (build 2550/release)
Библиотека кодирования : VirtualDubMod build 2550/release
Видео
Идентификатор : 0
Формат : MPEG-4 Visual
Профиль формата : Advanced Simple@L5
Параметр BVOP формата : 1
Параметр QPel формата : Нет
Параметр GMC формата : Без точки перехода
Параметр матрицы формата : Выборочная
Идентификатор кодека : XVID
Идентификатор кодека/Подсказка : XviD
Продолжительность : 2 ч. 1 м.
Битрейт : 1512 Кбит/сек
Ширина : 720 пикселей
Высота : 400 пикселей
Соотношение сторон : 16:9
Частота кадров : 23,976 кадра/сек
Цветовое пространство : YUV
Субдискретизация насыщенности : 4:2:0
Битовая глубина : 8 бит
Тип развёртки : Прогрессивная
Метод сжатия : С потерями
Бит/(Пиксели*Кадры) : 0.219
Размер потока : 1,28 Гбайт (88%)
Библиотека кодирования : XviD 73
Аудио
Идентификатор : 1
Формат : AC-3
Формат/Информация : Audio Coding 3
Расширение режима : CM (complete main)
Параметр Endianness формата : Big
Идентификатор кодека : 2000
Продолжительность : 2 ч. 1 м.
Вид битрейта : Постоянный
Битрейт : 192 Кбит/сек
Каналы : 2 канала
Расположение каналов : Front: L R
Частота : 48,0 КГц
Битовая глубина : 16 бит
Метод сжатия : С потерями
Размер потока : 167 Мбайт (11%)
Выравнивание : Разделение по промежуткам
Продолжительность промежутка : 42 мс. (1,00 видеокадр)
Время предзагрузки промежутка : 500 мс.

Скриншоты

If your ratio falls below 0.3, you will not be able to download Torrents! More about the rating.

[dis-tracker.ru].t10109.torrent 
Torrent: Registered [ 2015-09-18 09:30 ] · ABA89B6FB3F6EAE297BB6BA83D87373D4B3CB8A1

Download .torrent

Download

15 KB

Status: checked
Completed: 2 times
Size: 1.45 GB
terms.php
Похожие темы
[Profile] [PM]
Display posts:    
Reply to topic

Current time is: 21-Oct 04:32

All times are UTC ± 0



You cannot post new topics in this forum
You cannot reply to topics in this forum
You cannot edit your posts in this forum
You cannot delete your posts in this forum
You cannot vote in polls in this forum
You cannot attach files in this forum
You can download files in this forum