Бон вояж! / Bon Voyage (2003) DVDRip =

Reply to topic
DL-List and Torrent activity
Size:  2.05 GB   |    Registered:  5 years 1 month   |    Completed:  1 time

Seeder not seen: 4 years 10 months

 
   
 
 
 
Author Message

Dream ®

Gender: Male

Longevity: 3 years 4 months

Posts: 2164



Награды: None

Post 17-Sep-2015 18:33

[Quote]


Информация о фильме
Название: Бон вояж!
Оригинальное название: Bon Voyage
Год выхода: 2003
Жанр: Драма, мелодрама, триллер, приключения, военный
Режиссёр: Жан-Поль Раппено
В ролях: Изабель Аджани, Жерар Депардье, Виржини Ледуайен, Иван Атталь, Грегори Деранже, Питер Койот, Жан-Марк Стель, Аврора Клеман, Ксавьер Де Гийбон, Эдит Скоб
О фильме:
Июнь 1940 года. Политики, журналисты, буржуазия, шпионы бегут из оккупированного Парижа. Прекрасным убежищем оказывается роскошный отель «Сплендид» в Бордо, где героев ждут любовь, дружба, измена, предательство. Именно там разворачивается интрига, главными героями которой становятся звезда кино Вивиан Денвер, начинающий писатель Фредерик, профессор Копальски и его помощница Камилла, министр Бофор, мелкий воришка Рауль и немецкий шпион Алекс Уинклер. Ставкой в этой игре любовных и политических страстей оказываются национальные интересы Франции и ее свобода...
[imdb]http://www.imdb.com/title/tt0310778[/imdb] [kp]http://www.kinopoisk.ru/film/20326[/kp]
Выпущено: Франция, ARP Sélection, Canal+ [fr], France 2 Cinéma, France 3 Cinéma, Région Ile-de-France
Продолжительность: 01:50:15
Перевод: Дублированный (Мосфильм-Мастер)
Оригинальная аудио-дорожка: Французская
Файл
Кодек: XviD
Качество: DVDRip [Исходник: DVD-9]
Видео: XviD, 720x304 (2.35:1), 1821 Кбит/с, 25 кадр/с
Аудио #1: Русский, Dolby AC3, 48000 Гц, 384 Кбит/с, 6 каналов (5.1) - DUB [Мосфильм-Мастер]
Аудио #2: Французский, Dolby AC3, 48000 Гц, 448 Кбит/с, 6 каналов (5.1) - Оригинал
Субтитры: Нет

MediaInfo

General
Complete name : Bon.Voyage.2003.DVDRip.avi
Format : AVI
Format/Info : Audio Video Interleave
Format profile : OpenDML
File size : 2.05 GiB
Duration : 1h 50mn
Overall bit rate : 2 668 Kbps
Movie name : Bon Voyage! (2003) DVDRip
Writing application : VirtualDubMod 1.5.10.3 | www.virtualdub-fr.org || (build 2550/release)
Writing library : VirtualDubMod build 2550/release
Copyright : rip by ivandubskoj
Video
ID : 0
Format : MPEG-4 Visual
Format profile : Advanced Simple@L5
Format settings, BVOP : 1
Format settings, QPel : No
Format settings, GMC : No warppoints
Format settings, Matrix : Custom
Codec ID : XVID
Codec ID/Hint : XviD
Duration : 1h 50mn
Bit rate : 1 821 Kbps
Width : 720 pixels
Height : 304 pixels
Display aspect ratio : 2.35:1
Frame rate : 25.000 fps
Color space : YUV
Chroma subsampling : 4:2:0
Bit depth : 8 bits
Scan type : Progressive
Compression mode : Lossy
Bits/(Pixel*Frame) : 0.333
Stream size : 1.40 GiB (68%)
Writing library : XviD 73
Audio #1
ID : 1
Format : AC-3
Format/Info : Audio Coding 3
Mode extension : CM (complete main)
Codec ID : 2000
Duration : 1h 50mn
Bit rate mode : Constant
Bit rate : 384 Kbps
Channel(s) : 6 channels
Channel positions : Front: L C R, Side: L R, LFE
Sampling rate : 48.0 KHz
Bit depth : 16 bits
Compression mode : Lossy
Stream size : 303 MiB (14%)
Alignment : Split accross interleaves
Interleave, duration : 64 ms (1.60 video frames)
Interleave, preload duration : 500 ms
Title : Russian, DUB [Мосфильм-Мастер]
Audio #2
ID : 2
Format : AC-3
Format/Info : Audio Coding 3
Mode extension : CM (complete main)
Codec ID : 2000
Duration : 1h 50mn
Bit rate mode : Constant
Bit rate : 448 Kbps
Channel(s) : 6 channels
Channel positions : Front: L C R, Side: L R, LFE
Sampling rate : 48.0 KHz
Bit depth : 16 bits
Compression mode : Lossy
Stream size : 353 MiB (17%)
Alignment : Split accross interleaves
Interleave, duration : 64 ms (1.60 video frames)
Interleave, preload duration : 500 ms
Title : French [Original]

Скриншоты

If your ratio falls below 0.3, you will not be able to download Torrents! More about the rating.

[dis-tracker.ru].t10093.torrent 
Torrent: Registered [ 2015-09-17 18:33 ] · 1854EC2E6B789A4EEEE75B1D8CE8EBD288DCE88B

Download .torrent

Download

11 KB

Status: checked
Completed: 1 times
Size: 2.05 GB
terms.php
Похожие темы
[Profile] [PM]
Display posts:    
Reply to topic

Current time is: 20-Oct 03:32

All times are UTC ± 0



You cannot post new topics in this forum
You cannot reply to topics in this forum
You cannot edit your posts in this forum
You cannot delete your posts in this forum
You cannot vote in polls in this forum
You cannot attach files in this forum
You can download files in this forum