Синдром недосказанности (2015) HDTVRip

Reply to topic
DL-List and Torrent activity
Size:  740 MB   |    Registered:  5 years 1 month   |    Completed:  1 time

Seeder not seen: 5 years 1 month

 
   
 
 
 
Author Message

Dream ®

Gender: Male

Longevity: 3 years 5 months

Posts: 2164



Награды: None

Post 14-Sep-2015 19:42

[Quote]


Информация о фильме
Название: Синдром недосказанности
Год выхода: 2015
Жанр: Мелодрама
Режиссер: Сергей Лялин
В ролях: Ольга Павловец, Юрий Батурин, Елена Корикова, Виталий Кудрявцев, Мария Палей, Данила Шевченко
О фильме:
Антон и Юля собираются пожениться и устраивают вечер знакомства для своих родителей. Неожиданно выясняется, что Лариса, мать Антона, и Владимир, отец Юли, в юности были знакомы друг с другом. Более того, скромная и неприметная Лариса была влюблена в обеспеченного и высокомерного Владимира и сама стала инициатором их близости... Теперь Владимир - успешный бизнесмен, на его попечении любимая дочь Юля и жена-инвалид. Энергичный и здоровый мужчина, он с интересом смотрит на милую и обаятельную Ларису, неожиданно вновь возникшую в его жизни... Встреча с Владимиром всколыхнула давние чувства Ларисы. Не в силах справиться с собой, Лариса обращается за помощью к психологу. Психолог называет её состояние "синдромом недосказанности" и предлагает единственно верный способ избавиться от него - переспать с бывшим любовником...
[kp]http://www.kinopoisk.ru/film/929795[/kp]
Страна: Россия
Студия: Кинокомпания "Русское"
Продолжительность: 01:32:54
Перевод: Не требуется
Файл
Кодек: XviD
Качество: HDTVRip
Видео: 624x352 (1.77:1), 25 fps, XviD build 73 ~975 kbps avg, 0.18 bit/pixel
Звук: 48 kHz, MPEG Layer 3, 2 ch, ~128.00 kbps avg
Субтитры: Отсутствуют
Семпл

MI

General
Complete name : D:Изготовление риповSindrom.nedoskazannosti.2015.HDTVRip.by shkiper.avi
Format : AVI
Format/Info : Audio Video Interleave
File size : 740 MiB
Duration : 1h 32mn
Overall bit rate : 1 113 Kbps
Writing application : VirtualDubMod 1.5.10.3 | www.virtualdub-fr.org || (build 2550/release)
Writing library : VirtualDubMod build 2550/release
Video
ID : 0
Format : MPEG-4 Visual
Format profile : Advanced Simple@L5
Format settings, BVOP : 1
Format settings, QPel : No
Format settings, GMC : No warppoints
Format settings, Matrix : Custom
Codec ID : XVID
Codec ID/Hint : XviD
Duration : 1h 32mn
Bit rate : 975 Kbps
Width : 624 pixels
Height : 352 pixels
Display aspect ratio : 16:9
Frame rate : 25.000 fps
Color space : YUV
Chroma subsampling : 4:2:0
Bit depth : 8 bits
Scan type : Progressive
Compression mode : Lossy
Bits/(Pixel*Frame) : 0.178
Stream size : 648 MiB (88%)
Writing library : XviD 73
Audio
ID : 1
Format : MPEG Audio
Format version : Version 1
Format profile : Layer 3
Mode : Joint stereo
Mode extension : MS Stereo
Codec ID : 55
Codec ID/Hint : MP3
Duration : 1h 32mn
Bit rate mode : Constant
Bit rate : 128 Kbps
Channel(s) : 2 channels
Sampling rate : 48.0 KHz
Compression mode : Lossy
Stream size : 85.1 MiB (12%)
Alignment : Aligned on interleaves
Interleave, duration : 40 ms (1.00 video frame)
Interleave, preload duration : 504 ms
Writing library : LAME3.99r
Encoding settings : -m j -V 4 -q 2 -lowpass 17 -b 128

Скриншоты

If your ratio falls below 0.3, you will not be able to download Torrents! More about the rating.

[dis-tracker.ru].t10020.torrent 
Torrent: Registered [ 2015-09-14 19:42 ] · 0F840FBE0AF1161D52C8927F9F992D89D42DEEF1

Download .torrent

Download

15 KB

Status: checked
Completed: 1 times
Size: 740 MB
terms.php
Похожие темы
[Profile] [PM]
Display posts:    
Reply to topic

Current time is: 25-Oct 17:21

All times are UTC ± 0



You cannot post new topics in this forum
You cannot reply to topics in this forum
You cannot edit your posts in this forum
You cannot delete your posts in this forum
You cannot vote in polls in this forum
You cannot attach files in this forum
You can download files in this forum