Куш собачий / Lucky (2020) WEB-DLRip-AVC | iTunes

Reply to topic
DL-List and Torrent activity
Size:  744 MB   |    Registered:  10 days   |    Completed:  0 times

Seeder not seen: Never

 
   
 
 
 
Author Message

Славик ®

Gender: Male

Longevity: 3 years 3 months

Posts: 483



Награды: 4 (Подробнее)

Активный релизер (10 релизов) (Количество: 1) Активный релизер (100 релизов) (Количество: 1) Активный релизер (150 релизов) (Количество: 1)

Post 17-Oct-2020 16:54

[Quote]


Информация о фильме
Название: Куш собачий
Оригинальное название: Lucky
Год выпуска: 2020
Жанр: Комедия
Режиссер: Оливье Ван Хуфстадт
В ролях: Микаэль Юн, Альбан Иванов, Флоренс Форести, Сара Суко, Корина Масьеро, Франсуа Берлеан, Коди Ким, Даниэль Прево, Йоанн Бланк, Фред Тесто
О фильме:
Как поправить своё финансовое положение, не прикладывая особых усилий? Для начала – обзавестись мозговитым другом без тормозов. А затем – всего-навсего похитить полицейского пса. Теперь нюх на наживу вам обеспечен! Только не забывайте хорошенько кормить компаньона, ведь, по правде сказать, весь куш – собачий.
[imdb]http://www.imdb.com/title/tt10966156[/imdb] [kp]http://www.kinopoisk.ru/film/1302938[/kp]
Страна: Франция
Студия: Tchin Tchin Productions, 2.4.7. Films, Apollo Films
Продолжительность: 01:22:04
Перевод: Дублированный | iTunes
Субтитры: Russian (Full-length - iTunes)
Файл
Формат: Matroska
Качество: WEB-DLRip-AVC
Видео: 726x304 at 25.000 fps, x264@L4.1, ~1172 kbps, 0.212 bpp
Аудио: AAC, 2 ch, ~96 kbps - | Русский | -
Формат субтитров: softsub (SRT)

M/I

x264 [info]: frame I:1078 Avg QP:15.16 size: 39050
x264 [info]: frame P:31890 Avg QP:18.35 size: 11871
x264 [info]: frame B:90132 Avg QP:20.08 size: 3326
General
Format : Matroska
Format version : Version 4
File size : 744 MiB
Duration : 1 h 22 min
Overall bit rate : 1 267 kb/s
Movie name : Куш собачий.(2020).WEB-DLRip-AVC.[-=DoMiNo=-]
Encoded date : UTC 2020-10-16 21:19:35
Writing application : mkvmerge v8.3.0 ('Over the Horizon') 64bit
Writing library : libebml v1.3.1 + libmatroska v1.4.2
Cover : Yes
Attachments : Cover.jpg / Cover 2.jpg
Video
ID : 1
Format : AVC
Format/Info : Advanced Video Codec
Format profile : High@L4.1
Format settings : CABAC / 12 Ref Frames
Format settings, CABAC : Yes
Format settings, Reference : 12 frames
Codec ID : V_MPEG4/ISO/AVC
Duration : 1 h 22 min
Bit rate : 1 172 kb/s
Width : 726 pixels
Height : 304 pixels
Display aspect ratio : 2.40:1
Frame rate mode : Constant
Frame rate : 25.000 FPS
Color space : YUV
Chroma subsampling : 4:2:0
Bit depth : 8 bits
Scan type : Progressive
Bits/(Pixel*Frame) : 0.212
Stream size : 687 MiB (92%)
Title : -=DoMiNo=-
Writing library : x264 core 161 r3018 db0d417
Encoding settings : cabac=1 / ref=12 / deblock=1:-2:-2 / analyse=0x3:0x133 / me=umh / subme=10 / psy=1 / psy_rd=1.05:0.15 / mixed_ref=1 / me_range=32 / chroma_me=1 / trellis=2 / 8x8dct=1 / cqm=0 / deadzone=21,11 / fast_pskip=0 / chroma_qp_offset=-3 / threads=6 / lookahead_threads=1 / sliced_threads=0 / nr=0 / decimate=0 / interlaced=0 / bluray_compat=0 / constrained_intra=0 / bframes=9 / b_pyramid=2 / b_adapt=2 / b_bias=0 / direct=3 / weightb=1 / open_gop=0 / weightp=2 / keyint=250 / keyint_min=25 / scenecut=40 / intra_refresh=0 / rc_lookahead=60 / rc=2pass / mbtree=0 / bitrate=1172 / ratetol=1.0 / qcomp=0.65 / qpmin=0 / qpmax=69 / qpstep=4 / cplxblur=20.0 / qblur=0.5 / vbv_maxrate=50000 / vbv_bufsize=62500 / nal_hrd=none / filler=0 / ip_ratio=1.40 / pb_ratio=1.30 / aq=1:1.00
Language : English
Default : Yes
Forced : No
Color range : Limited
Color primaries : BT.709
Transfer characteristics : BT.709
Matrix coefficients : BT.709
Audio
ID : 2
Format : AAC LC SBR
Format/Info : Advanced Audio Codec Low Complexity with Spectral Band Replication
Commercial name : HE-AAC
Format settings : Explicit
Codec ID : A_AAC-2
Duration : 1 h 22 min
Bit rate : 96.0 kb/s
Channel(s) : 2 channels
Channel layout : L R
Sampling rate : 48.0 kHz
Frame rate : 23.438 FPS (2048 SPF)
Compression mode : Lossy
Stream size : 55.6 MiB (7%)
Language : Russian
Default : Yes
Forced : Yes
Text
ID : 3
Format : UTF-8
Codec ID : S_TEXT/UTF8
Codec ID/Info : UTF-8 Plain Text
Duration : 1 h 17 min
Bit rate : 112 b/s
Count of elements : 1195
Stream size : 64.1 KiB (0%)
Language : Russian
Default : No
Forced : No
Menu
00:00:00.000 : en:Глава 1
00:04:08.120 : en:Глава 2
00:10:53.480 : en:Глава 3
00:18:41.000 : en:Глава 4
00:22:43.720 : en:Глава 5
00:28:13.320 : en:Глава 6
00:34:11.960 : en:Глава 7
00:41:02.560 : en:Глава 8
00:50:30.040 : en:Глава 9
00:58:02.800 : en:Глава 10
01:05:09.560 : en:Глава 11
01:14:33.320 : en:Глава 12

Скриншоты

With ratio 0.06 you can not download torrents

Похожие темы
[Profile] [PM]
Display posts:    
Reply to topic

Current time is: 27-Oct 17:30

All times are UTC ± 0



You cannot post new topics in this forum
You cannot reply to topics in this forum
You cannot edit your posts in this forum
You cannot delete your posts in this forum
You cannot vote in polls in this forum
You cannot attach files in this forum
You can download files in this forum