Куш собачий / Lucky (2020) WEB-DL 1080p | iTunes

Reply to topic
DL-List and Torrent activity
Size:  2.9 GB   |    Registered:  4 days   |    Completed:  0 times

Seeder not seen: Never

 
   
 
 
 
Author Message

Славик ®

Gender: Male

Longevity: 3 years 3 months

Posts: 448



Награды: 4 (Подробнее)

Активный релизер (10 релизов) (Количество: 1) Активный релизер (100 релизов) (Количество: 1) Активный релизер (150 релизов) (Количество: 1)

Post 17-Oct-2020 16:49

[Quote]


Информация о фильме
Название: Куш собачий
Оригинальное название: Lucky
Год выпуска: 2020
Жанр: Комедия
Режиссер: Оливье Ван Хуфстадт
В ролях: Микаэль Юн, Альбан Иванов, Флоренс Форести, Сара Суко, Корина Масьеро, Франсуа Берлеан, Коди Ким, Даниэль Прево, Йоанн Бланк, Фред Тесто
О фильме:
Как поправить своё финансовое положение, не прикладывая особых усилий? Для начала – обзавестись мозговитым другом без тормозов. А затем – всего-навсего похитить полицейского пса. Теперь нюх на наживу вам обеспечен! Только не забывайте хорошенько кормить компаньона, ведь, по правде сказать, весь куш – собачий.
[imdb]http://www.imdb.com/title/tt10966156[/imdb] [kp]http://www.kinopoisk.ru/film/1302938[/kp]
Страна: Франция
Студия: Tchin Tchin Productions, 2.4.7. Films, Apollo Films
Продолжительность: 01:22:04
Перевод: Дублированный | iTunes
Файл
Формат: MKV
Качество: WEB-DL 1080p
Видео: MPEG-4 AVC, ~4678 Кбит/с, 1920x804, 25.000 FPS
Аудио: Русский (AC3, 6 ch, 384 Кбит/с)
Субтитры: Russian (Full-length - iTunes)

M/I

General
Format : Matroska
Format version : Version 4
File size : 2.90 GiB
Duration : 1 h 22 min
Overall bit rate : 5 064 kb/s
Movie name : LUCKY_2020_WEB-DL_1080p-BLUEBIRD
Encoded date : UTC 2020-10-15 18:37:45
Writing application : mkvmerge v43.0.0 ('The Quartermaster') 64-bit
Writing library : libebml v1.3.10 + libmatroska v1.5.2
Cover : Yes
Attachments : cover.jpg
Video
ID : 1
Format : AVC
Format/Info : Advanced Video Codec
Format profile : High@L4
Format settings : CABAC / 5 Ref Frames
Format settings, CABAC : Yes
Format settings, Reference : 5 frames
Codec ID : V_MPEG4/ISO/AVC
Duration : 1 h 22 min
Bit rate : 4 678 kb/s
Width : 1 920 pixels
Height : 804 pixels
Display aspect ratio : 2.40:1
Frame rate mode : Constant
Frame rate : 25.000 FPS
Color space : YUV
Chroma subsampling : 4:2:0
Bit depth : 8 bits
Scan type : Progressive
Bits/(Pixel*Frame) : 0.121
Stream size : 2.68 GiB (92%)
Language : English
Default : Yes
Forced : No
Color range : Limited
Color primaries : BT.709
Transfer characteristics : BT.709
Matrix coefficients : BT.709
Audio
ID : 2
Format : AC-3
Format/Info : Audio Coding 3
Commercial name : Dolby Digital
Codec ID : A_AC3
Duration : 1 h 22 min
Bit rate mode : Constant
Bit rate : 384 kb/s
Channel(s) : 6 channels
Channel layout : L R C LFE Ls Rs
Sampling rate : 48.0 kHz
Frame rate : 31.250 FPS (1536 SPF)
Compression mode : Lossy
Delay relative to video : -40 ms
Stream size : 225 MiB (8%)
Title : [DUB] DD 5.1 @ 384 kbps (iTunes)
Language : Russian
Service kind : Complete Main
Default : Yes
Forced : No
Text
ID : 3
Format : UTF-8
Codec ID : S_TEXT/UTF8
Codec ID/Info : UTF-8 Plain Text
Duration : 1 h 17 min
Bit rate : 112 b/s
Count of elements : 1195
Stream size : 64.1 KiB (0%)
Title : Full-length
Language : Russian
Default : No
Forced : No
Menu
00:00:00.000 : en:Глава 1
00:04:08.120 : en:Глава 2
00:10:53.480 : en:Глава 3
00:18:41.000 : en:Глава 4
00:22:43.720 : en:Глава 5
00:28:13.320 : en:Глава 6
00:34:11.960 : en:Глава 7
00:41:02.560 : en:Глава 8
00:50:30.040 : en:Глава 9
00:58:02.800 : en:Глава 10
01:05:09.560 : en:Глава 11
01:14:33.320 : en:Глава 12

Скриншоты

If your ratio falls below 0.3, you will not be able to download Torrents! More about the rating.

[dis-tracker.ru].t25967.torrent 
Torrent: Registered [ 2020-10-17 16:49 ] · 0921FA7BF412531C2FE93F95BE9F0054CA246466

Download .torrent

Download

59 KB

Status: * not checked
Completed: 0 times
Size: 2.9 GB
terms.php
Похожие темы
[Profile] [PM]
Display posts:    
Reply to topic

Current time is: 22-Oct 09:23

All times are UTC ± 0



You cannot post new topics in this forum
You cannot reply to topics in this forum
You cannot edit your posts in this forum
You cannot delete your posts in this forum
You cannot vote in polls in this forum
You cannot attach files in this forum
You can download files in this forum