Убийство на троих [01-04 из 04] (2015) WEB-DLRip | КПК

Reply to topic
DL-List and Torrent activity
Size:  891 MB   |    Registered:  1 month 28 days   |    Completed:  0 times
Seeders:  4  [  0 KB/s  ]   Leechers:  324  [  0 KB/s  ]   Show peers in full details
 
   
 
 
Author Message

Славик ®

Gender: Male

Longevity: 3 years 4 months

Posts: 716



Награды: 4 (Подробнее)

Активный релизер (10 релизов) (Количество: 1) Активный релизер (100 релизов) (Количество: 1) Активный релизер (150 релизов) (Количество: 1)

Post 28-Sep-2020 16:58

[Quote]


Информация о фильме
Оригинальное название: Убийство на троих
Год выпуска: 2015
Жанр: Детектив
Режиссер: Александр Кириенко
В ролях: Алла Юганова, Юлия Такшина, Екатерина Копанова, Александр Макогон, Игорь Ботвин, Анна Пескова
О фильме:
Катя, Жанна и Ирина - неунывающие подруги бальзаковского возраста. Секретов между ними давно нет, они привыкли все поверять друг другу и помогать в любой беде. Им не надо искать неприятности - неприятности их сами находят. Приехав на выходные в санаторий, подруги знакомятся с девушкой Ольгой и случайно забирают ее книгу. В тот же день они находят у себя в номере труп неизвестного мужчины, а Ольга исчезает...
[kp]http://www.kinopoisk.ru/film/916134[/kp]
Страна: Россия
Студия: ABC Film, Film Stream
Продолжительность: 4 x ~ 00:49:00
Перевод: Не требуется
Файл
Формат: MP4
Качество: WEB-DLRip-AVC
Видео: MPEG-4 AVC (x264), 640x360, ~500 kbps, 25.000 fps
Аудио: AAC LC, 44.1 KHz, 2 ch, 128 Kbps
Субтитры: Нет
Семпл

Скриншоты

MI

Complete name : F:КИНОUbiistvo.Na.Troih.S01.2015.AVC.WEB-DLRip.KPK.GFUbiistvo.Na.Troih.s01e02.2015.AVC.WEB-DLRip.KPK.GF.mp4
Format : MPEG-4
Codec ID : M4V (isom/iso2/avc1)
File size : 224 MiB
Duration : 49 min 21 s
Overall bit rate mode : Variable
Overall bit rate : 633 kb/s
Writing application : Lavf53.19.0
Video
ID : 1
Format : AVC
Format/Info : Advanced Video Codec
Format profile : High@L4.1
Format settings, CABAC : Yes
Format settings, RefFrames : 8 frames
Codec ID : avc1
Codec ID/Info : Advanced Video Coding
Duration : 49 min 21 s
Bit rate : 500 kb/s
Width : 640 pixels
Height : 360 pixels
Display aspect ratio : 16:9
Frame rate mode : Constant
Frame rate : 25.000 FPS
Color space : YUV
Chroma subsampling : 4:2:0
Bit depth : 8 bits
Scan type : Progressive
Bits/(Pixel*Frame) : 0.087
Stream size : 176 MiB (79%)
Writing library : x264 core 148 r2638 7599210
Encoding settings : cabac=1 / ref=8 / deblock=1:-1:-1 / analyse=0x3:0x133 / me=umh / subme=10 / psy=1 / psy_rd=1.00:0.00 / mixed_ref=1 / me_range=24 / chroma_me=1 / trellis=2 / 8x8dct=1 / cqm=0 / deadzone=21,11 / fast_pskip=1 / chroma_qp_offset=-2 / threads=6 / lookahead_threads=1 / sliced_threads=0 / nr=0 / decimate=1 / interlaced=0 / bluray_compat=0 / constrained_intra=0 / bframes=8 / b_pyramid=2 / b_adapt=2 / b_bias=0 / direct=3 / weightb=1 / open_gop=0 / weightp=2 / keyint=250 / keyint_min=126 / scenecut=40 / intra_refresh=0 / rc_lookahead=40 / rc=2pass / mbtree=1 / bitrate=500 / ratetol=1.0 / qcomp=0.60 / qpmin=0 / qpmax=69 / qpstep=4 / cplxblur=20.0 / qblur=0.5 / ip_ratio=1.40 / aq=1:1.00
Menus : 3
Audio
ID : 2
Format : AAC
Format/Info : Advanced Audio Codec
Format profile : LC
Codec ID : 40
Duration : 49 min 21 s
Bit rate mode : Variable
Bit rate : 128 kb/s
Channel(s) : 2 channels
Channel positions : Front: L R
Sampling rate : 44.1 kHz
Frame rate : 43.066 FPS (1024 SPF)
Compression mode : Lossy
Stream size : 45.2 MiB (20%)
Default : Yes
Alternate group : 1
Menus : 3

With ratio 0.05 you can not download torrents

Похожие темы
[Profile] [PM]
Display posts:    
Reply to topic

Current time is: 26-Nov 18:03

All times are UTC ± 0



You cannot post new topics in this forum
You cannot reply to topics in this forum
You cannot edit your posts in this forum
You cannot delete your posts in this forum
You cannot vote in polls in this forum
You cannot attach files in this forum
You can download files in this forum