Путь на юг / Монстры юга / Southbound (2015) BDRip-AVC

Reply to topic
DL-List and Torrent activity
Size:  1.58 GB   |    Registered:  3 years 1 month   |    Completed:  0 times

Seeder not seen: Never

 
   
 
 
 
Author Message

Славик ®

Gender: Male

Longevity: 3 years 4 months

Posts: 716



Награды: 4 (Подробнее)

Активный релизер (10 релизов) (Количество: 1) Активный релизер (100 релизов) (Количество: 1) Активный релизер (150 релизов) (Количество: 1)

Post 28-Sep-2017 14:43

[Quote]

Информация о фильме
Название: Путь на юг
Оригинальное название: Southbound
Год выхода: 2015
Жанр: Ужасы, фантастика, триллер
Режиссер: Роксанна Бенжамин, Дэвид Брукнер, Патрик Хорват
В ролях: Чад Виллелла, Мэттью Беттинелли, Кристина Пешич, Фаббианн Терез, Натали Лав, Ханна Маркс, Дэна Гулд, Энесса Ремси, Сьюзэн Бурк, Дэйв Джонсон
О фильме:
Волею судьбы или какой-то другой неведомой силы на шоссе, ведущем на юг, оказываются совершенно разные люди. Все они едут по этой дороге с определенной целью, и у каждого из них имеются свои скелеты в шкафу. Но во время поездки все они столкнуться с непреодолимым кошмаром, который заставит их всерьез задуматься о содеянных поступках..

[imdb]http://www.imdb.com/title/tt4935334[/imdb] [kp]http://www.kinopoisk.ru/level/1/film/928053[/kp]
Продолжительность: 01:29:09
Перевод: Профессиональный (многоголосый, закадровый) [MEGOGO] Официальный звук!
Субтитры: Английские
Проф. перевод вытянут и синхронизирован Twіster из онлайн кинотеатра MEGOGO. Рекламы нет!
Файл
Формат: MKV
Качество: BDRip-AVC
Видео: AVC, 1024х428 (2.40:1), 1895 kbps, 23.976 fps, 0,180 bpp
Аудио 1: AC-3, 48.0 KHz, 2.0 ch, 192 Kbps, CBR (Russian)
Аудио 2: AC-3, 48.0 KHz, 5.1 ch, 448 Kbps, CBR

MI

General
Unique ID : 192442497508730703615437193153142931447 (0x90C713AC9A8A5D9EBEBF8A5473ED3FF7)
Complete name : D:Southbound.2015.BDRip.AVC.ExKinoRay.mkv
Format : Matroska
Format version : Version 2
File size : 1.58 GiB
Duration : 1 h 29 min
Overall bit rate : 2 532 kb/s
Movie name : Southbound 2015 from ExKinoRay
Encoded date : UTC 2017-09-27 11:09:42
Writing application : mkvmerge v5.6.0 ('Kenya Kane') built on May 27 2012 16:44:04
Writing library : libebml v1.2.3 + libmatroska v1.3.0
Video
ID : 1
Format : AVC
Format/Info : Advanced Video Codec
Format profile : High@L4.1
Format settings, CABAC : Yes
Format settings, ReFrames : 13 frames
Codec ID : V_MPEG4/ISO/AVC
Duration : 1 h 29 min
Bit rate : 1 895 kb/s
Width : 1 024 pixels
Height : 428 pixels
Display aspect ratio : 2.40:1
Frame rate mode : Constant
Frame rate : 23.976 (23976/1000) FPS
Color space : YUV
Chroma subsampling : 4:2:0
Bit depth : 8 bits
Scan type : Progressive
Bits/(Pixel*Frame) : 0.180
Stream size : 1.15 GiB (73%)
Title : Enigma
Writing library : x264 core 144 r2525 40bb568
Encoding settings : cabac=1 / ref=13 / deblock=1:-2:-2 / analyse=0x3:0x113 / me=umh / subme=10 / psy=1 / psy_rd=1.05:0.15 / mixed_ref=1 / me_range=32 / chroma_me=1 / trellis=2 / 8x8dct=1 / cqm=0 / deadzone=21,11 / fast_pskip=0 / chroma_qp_offset=-3 / threads=12 / lookahead_threads=3 / sliced_threads=0 / nr=0 / decimate=0 / interlaced=0 / bluray_compat=0 / constrained_intra=0 / bframes=12 / b_pyramid=2 / b_adapt=2 / b_bias=0 / direct=3 / weightb=1 / open_gop=0 / weightp=2 / keyint=240 / keyint_min=23 / scenecut=40 / intra_refresh=0 / rc_lookahead=40 / rc=2pass / mbtree=0 / bitrate=1895 / ratetol=1.0 / qcomp=0.60 / qpmin=0 / qpmax=51 / qpstep=4 / cplxblur=20.0 / qblur=0.5 / vbv_maxrate=50000 / vbv_bufsize=62500 / nal_hrd=none / filler=0 / ip_ratio=1.40 / pb_ratio=1.30 / aq=1:0.80
Language : English
Default : Yes
Forced : No
Color range : Limited
Color primaries : BT.709
Transfer characteristics : BT.709
Matrix coefficients : BT.709
Audio #1
ID : 2
Format : AC-3
Format/Info : Audio Coding 3
Mode extension : CM (complete main)
Format settings, Endianness : Big
Codec ID : A_AC3
Duration : 1 h 29 min
Bit rate mode : Constant
Bit rate : 192 kb/s
Channel(s) : 2 channels
Channel positions : Front: L R
Sampling rate : 48.0 kHz
Frame rate : 31.250 FPS (1536 spf)
Compression mode : Lossy
Stream size : 122 MiB (8%)
Title : MVO
Language : Russian
Default : Yes
Forced : No
Audio #2
ID : 3
Format : AC-3
Format/Info : Audio Coding 3
Mode extension : CM (complete main)
Format settings, Endianness : Big
Codec ID : A_AC3
Duration : 1 h 29 min
Bit rate mode : Constant
Bit rate : 448 kb/s
Channel(s) : 6 channels
Channel positions : Front: L C R, Side: L R, LFE
Sampling rate : 48.0 kHz
Frame rate : 31.250 FPS (1536 spf)
Compression mode : Lossy
Stream size : 286 MiB (18%)
Language : English
Default : No
Forced : No
Text
ID : 4
Format : UTF-8
Codec ID : S_TEXT/UTF8
Codec ID/Info : UTF-8 Plain Text
Language : English
Default : No
Forced : No
Menu
00:00:00.000 : en:Chapter 01
00:07:20.690 : en:Chapter 02
00:15:01.650 : en:Chapter 03
00:21:38.255 : en:Chapter 04
00:29:04.576 : en:Chapter 05
00:36:01.742 : en:Chapter 06
00:40:06.570 : en:Chapter 07
00:50:18.515 : en:Chapter 08
00:55:06.678 : en:Chapter 09
01:06:16.263 : en:Chapter 10
01:11:53.934 : en:Chapter 11
01:25:51.604 : en:Chapter 12

Скриншоты

With ratio 0.05 you can not download torrents

Похожие темы
[Profile] [PM]
Display posts:    
Reply to topic

Current time is: 26-Nov 17:31

All times are UTC ± 0



You cannot post new topics in this forum
You cannot reply to topics in this forum
You cannot edit your posts in this forum
You cannot delete your posts in this forum
You cannot vote in polls in this forum
You cannot attach files in this forum
You can download files in this forum